Ссылка на приватное зеркало нашего сайта всего за 1$. Внимание количество ограничено!!!

2 сезон

iTunes

1 сезон

1

iTunes

iTunes

iTunes

1 сезон

RePack

30

ИГРА 18+

pack

ВАЖНО

!!Акция!!

Alien_RageХит недели

RePack

MK11
pack

Забери бонус

RePack

jed

!!Акция!!

Alien_Rage

RePack

fifa19

RePack

Assassins Creed: Odyssey

RePack

NEED FOR SPEED™ PAYBACK

4 сезон

9 сезон

Бесстыжие 9 сезон

Все сериалы

все сериалы на PB.wtf

RePack

FAR CRY 5
  

Хорошая жена / Сезон: 1 / Серии: 1-20 из 20 (Станислав Либин) [2019, Драма, SATRip] pb.wtf

Хорошая жена через торрент pb.wtf

Размер: 11.72 GB | Добавлен: 10 мес. назад | Торрент скачан:50 раз
Скачать  

11-11-2019 15:25 Хорошая жена Скачать торрент  

Хорошая жена
Год выпуска: 2019
Страна: Россия
Жанр: Драма
Продолжительность: ~ 00:46:00
Субтитры: отсутствуют

Режиссер: Станислав Либин



В ролях: Александра Урсуляк, Александр Домогаров, Дмитрий Миллер, Марина Зудина, Сабина Ахмедова, Наиль Абдрахманов, Сергей Погосян, Алексей Барабаш, Галина Польских, Арсений Гусев, Елизавета Зарубина, Александр Коротков (II), Зоя Лирова, Ксения Самойлова, Анастасия Христьян, Марина Кондратьева, Даниил Эльдаров, Валерий Новиков, Алла Иванцова, Елизавета Лотова, Сергей Черданцев

Описание: Действие российской адаптации популярного американского телесериала разворачивается в Санкт-Петербурге. В течение одного дня жизнь Алисы меняется. Её муж, прокурор ленинградской области, Пётр Филиппов становится героем сразу нескольких громких скандалов. Репутация, которую он так долго выстраивал оказалась разрушена. Алиса с детьми переезжает в простую, но просторную квартиру свекрови в центре Питера. Теперь она должна сама обеспечивать всю семью. Спустя годы Алиса возвращается к адвокатской карьере и начинает работу в юридической фирме своего университетского друга Виталия Калинина.

Качество: SATRip
Формат: AVI

Видео: XviD, ~ 1570 Кбит/с, 720x400
Аудио: MP3, 2 ch, 192 Кбит/с
скриншот  скриншот  скриншот  скриншот  

Общее
Полное имя : C:\Horoshaya.Zhena.2019.XviD.SATRip.25Kuzmich\Horoshaya.Zhena.e01.XviD.SATRip.25Kuzmich.avi
Формат : AVI
Формат/Информация : Audio Video Interleave
Размер файла : 600 Мбайт
Продолжительность : 50 м. 17 с.
Общий поток : 1669 Кбит/сек
Программа кодирования : VirtualDubMod 1.5.10.3 | www.virtualdub-fr.org || (build 2550/release)
Библиотека кодирования : VirtualDubMod build 2550/release

Видео
Идентификатор : 0
Формат : MPEG-4 Visual
Профиль формата : Advanced Simple@L5
Настройки формата : BVOP1
Параметр BVOP формата : 1
Параметр QPel формата : Нет
Параметр GMC формата : Без точки перехода
Параметр матрицы формата : Default (MPEG)
Идентификатор кодека : XVID
Идентификатор кодека/Подсказка : XviD
Продолжительность : 50 м. 17 с.
Битрейт : 1570 Кбит/сек
Ширина : 720 пикселей
Высота : 400 пикселей
Соотношение сторон : 16:9
Частота кадров : 25,000 кадров/сек
Цветовое пространство : YUV
Субдискретизация насыщенности : 4:2:0
Битовая глубина : 8 бит
Тип развёртки : Прогрессивная
Метод сжатия : С потерями
Бит/(Пиксели*Кадры) : 0.195
Размер потока : 504 Мбайт (84%)
Библиотека кодирования : XviD 73

Аудио
Идентификатор : 1
Формат : MPEG Audio
Версия формата : Version 1
Профиль формата : Layer 3
Настройки формата : Joint stereo
Идентификатор кодека : 55
Идентификатор кодека/Подсказка : MP3
Продолжительность : 50 м. 17 с.
Вид битрейта : Постоянный
Битрейт : 192 Кбит/сек
Каналы : 2 канала
Частота : 48,0 КГц
Частота кадров : 41,667 кадра/сек (1152 SPF)
Метод сжатия : С потерями
Размер потока : 69,1 Мбайт (12%)
Выравнивание : Соединение по промежуткам
Библиотека кодирования : LAME3.99r
Настройки программы : -m j -V 4 -q 2 -lowpass 18.6 -b 192

Внимание! Раздача ведётся путём добавления новых серий; при каждом добавлении создаётся новый торрент. Чтобы начать докачку новой серии, пользователям необходимо сделать следующее:
(1) остановить скачивание,
(2) удалить старый торрент у себя из клиента (старые серии удалять не надо),
(3) скачать новый торрент и запустить его у себя в клиенте вместо старого, при этом указать клиенту путь в старую папку куда и должно происходить скачивание новых серий.

Ваш клиент при этом должен произвести хеширование (проверку) старой папки (если не производит сам - помогите ему сделать это), и будет докачивать только те серии которых у вас ещё нет. Старые серии при этом не удаляются, а продолжают раздаваться!

Eсли вы уже удалили старые серии, то предотвратить повторную закачку старых серий можно, отжав галочку в соответствующих местах при запуске нового торрента. По возможности, желательно не удалять старые серии как можно дольше чтобы релизёр не столько продолжал раздавать старые серии, а смог сконцентрироваться на новых.
pb.wtf



Скачать Хорошая жена через торрент https://img15.lostpic.net/2019/11/11/f66036182d5249b18eb8761fe25d9ab9.jpg Скачать фильм Хорошая жена через торрент бесплантно в хорошем качестве Описание: Действие российской адаптации популярного американского телесериала разворачивается в Санкт-Петербурге. В течение одного дня ... 9.8 10 6
Торрент: Зарегистрирован [2019-11-22 17:37] · скачан: 50 раз
Статус: √ проверено
Размер: 11.72 GB
Как cкачать? Как скачать Хорошая жена через торрент | qTorrent

% Раздел Тема Автор DL S | L
Наши сериалы [ 12.32 GB ] Хорошая жена / Сезон: 1 / Серии: 1-20 из 20 [2019 HDTVRip] bober100 Скачать
1 | 0
Наши сериалы [ 55.52 GB ] Хорошая жена / Сезон: 1 / Серии: 1-20 из 20 [2019 HDTV 1080i] bober100 Скачать
1 | 0
Наши сериалы [ 25.25 GB ] Хорошая жена / Сезон: 1 / Серии: 1-20 из 20 [2019 HDTVRip 720p] bober100 Скачать
1 | 0
Наши сериалы [ 15 GB ] Хорошая жена / Сезон: 1 / Серии: 1-20 из 20 [2019 HDTVRip-AVC] bober100 Скачать
1 | 0

28-11-2019 20:33  

Отключить всю рекламу на сайте

    Дорогой пользователь! Огромная просьба, поблагодарите релизера, оцените раздачу и оставьте свои комментарий, если Вы скачали Хорошая жена через торрент бесплатно! Внесите свою лепту в развитие PiratBit!
    Комментировать посты могут только пользователи прошедшие не сложную регистрацию
    Показать сообщения:    

    Хорошая жена через торрент
    Скачать бесплатно Хорошая жена
    Хорошая жена скачать торрент
    Хорошая жена смотреть онлайн
    Cкачать фильм Хорошая жена бесплатно
    Хорошая жена скачать торрент в хорошем качестве
    Хорошая жена смотреть онлайн бесплатно в хорошем качестве


    Вы не можете начинать темы
    Вы не можете отвечать на сообщения
    Вы не можете редактировать свои сообщения
    Вы не можете удалять свои сообщения
    Вы не можете голосовать в опросах
    Вы не можете прикреплять файлы к сообщениям
    Вы можете скачивать файлы