Ссылка на приватное зеркало нашего сайта всего за 1$. Внимание количество ограничено!!!

2 сезон

iTunes

1 сезон

1

iTunes

iTunes

iTunes

1 сезон

RePack

30

ИГРА 18+

pack

ВАЖНО

!!Акция!!

Alien_RageХит недели

RePack

MK11
pack

Забери бонус

RePack

jed

!!Акция!!

Alien_Rage

RePack

fifa19

RePack

Assassins Creed: Odyssey

RePack

NEED FOR SPEED™ PAYBACK

4 сезон

9 сезон

Бесстыжие 9 сезон

Все сериалы

все сериалы на PB.wtf

RePack

FAR CRY 5
  

Доктор Рихтер / Сезон: 3 / Серии: 1-16 из 16 (Антон Борматов) [2019, Драма, детектив, медицина, SATRip] pb.wtf

Доктор Рихтер через торрент pb.wtf

Размер: 9.38 GB | Добавлен: 11 мес. назад | Торрент скачан:21 раз
Скачать  

11-11-2019 17:58 Доктор Рихтер Скачать торрент  

Доктор Рихтер
Год выпуска: 2019
Страна: Россия
Жанр: Драма, детектив, медицина
Продолжительность: ~ 00:51:00
Субтитры: отсутствуют

Режиссер: Антон Борматов

rating

В ролях: Алексей Серебряков, Дмитрий Ендальцев, Полина Чернышова, Павел Чинарёв, Анна Михалкова, Виталий Хаев, Александр Яценко, Мария Миронова мл., Екатерина Вилкова, Александр Робак, Ирина Пегова, Дарья Екамасова, Полина Ауг, Мария Шалаева, Семён Трескунов, Кирилл Плетнёв, Юлия Пересильд, Анатолий Белый, Александр Галибин, Сахат Дурсунов, Вероника Корниенко, Максим Сапрыкин, Мария Болтнева, Алёна Мордовина, Федя Смирнов, Эмилия Климова, Елена Котельникова, Александр Андриенко, Ксения Дорохова, Анна Тараторкина

Описание: Он превосходный специалист в своей области, врач - диагност, которому нет равных. К нему обращаются в тех сложнейших случаях, когда пациент, казалось бы, уже обречен и он борется за жизнь пациента, не жалея своего здоровья. Он невероятно трудный человек в общении с близкими и коллегами, живущий в своем мире по исключительно своим собственным законам. Ему не интересны люди, ведь они «все лгут», его волнуют только их болезни. Его характера боятся все коллеги, но, несмотря на это, все они мечтают попасть в его легендарную диагностическую «команду»… Знакомьтесь – доктор Рихтер, главный герой российской адаптации культового американского сериала «Доктор Хаус» («House, M.D.»), в течение восьми сезонов волновавшего умы и сердца зрителей. Итак, история болезни №1, лечащий врач Андрей Рихтер…

Качество: SATRip
Формат: AVI

Видео: 720x400 (1.80:1), 25 fps, XviD build 73 ~1500 kbps avg, 0.21 bit/pixel
Аудио: 48 kHz, MPEG Layer 3, 2 ch, ~192.00 kbps avg
скриншот  скриншот  скриншот  скриншот  

Общее
Полное имя : C:\Doktor.Rihter.S03.XviD.SATRip.25Kuzmich\Doktor.Rihter.s03.e01.XviD.SATRip.25Kuzmich.avi
Формат : AVI
Формат/Информация : Audio Video Interleave
Размер файла : 600 Мбайт
Продолжительность : 52 м. 5 с.
Общий поток : 1611 Кбит/сек
Программа кодирования : VirtualDubMod 1.5.10.3 | www.virtualdub-fr.org || (build 2550/release)
Библиотека кодирования : VirtualDubMod build 2550/release

Видео
Идентификатор : 0
Формат : MPEG-4 Visual
Профиль формата : Advanced Simple@L5
Настройки формата : BVOP1
Параметр BVOP формата : 1
Параметр QPel формата : Нет
Параметр GMC формата : Без точки перехода
Параметр матрицы формата : Default (MPEG)
Идентификатор кодека : XVID
Идентификатор кодека/Подсказка : XviD
Продолжительность : 52 м. 5 с.
Битрейт : 1410 Кбит/сек
Ширина : 720 пикселей
Высота : 400 пикселей
Соотношение сторон : 16:9
Частота кадров : 25,000 кадров/сек
Цветовое пространство : YUV
Субдискретизация насыщенности : 4:2:0
Битовая глубина : 8 бит
Тип развёртки : Прогрессивная
Метод сжатия : С потерями
Бит/(Пиксели*Кадры) : 0.196
Размер потока : 525 Мбайт (87%)
Библиотека кодирования : XviD 73

Аудио
Идентификатор : 1
Формат : MPEG Audio
Версия формата : Version 1
Профиль формата : Layer 3
Настройки формата : Joint stereo / MS Stereo
Идентификатор кодека : 55
Идентификатор кодека/Подсказка : MP3
Продолжительность : 52 м. 5 с.
Вид битрейта : Постоянный
Битрейт : 192 Кбит/сек
Каналы : 2 канала
Частота : 48,0 КГц
Частота кадров : 41,667 кадра/сек (1152 SPF)
Метод сжатия : С потерями
Размер потока : 71,5 Мбайт (12%)
Выравнивание : Соединение по промежуткам
Продолжительность промежутка : 40 мс. (1,00 видеокадр)
Время предзагрузки промежутка : 504 мс.
Библиотека кодирования : LAME3.99r
Настройки программы : -m j -V 4 -q 2 -lowpass 18.6 -b 192

Раздача ведётся путём добавления новых серий, при каждом добавлении создаётся новый торрент. Чтобы начать докачку новой серии, пользователям необходимо сделать следующее:

- Остановить скачивание.
- Удалить старый торрент у себя из клиента (старые серии удалять не надо).
- Скачать новый торрент и запустить его у себя в клиенте вместо старого, при этом указать клиенту путь в старую папку куда и должно происходить скачивание новых серий.

Ваш клиент при этом должен произвести хеширование (проверку) старой папки (если не производит сам - помогите ему сделать это), и будет докачивать только те серии которых у вас ещё нет. Старые серии при этом не удаляются, а продолжают раздаваться!
Если вы уже удалили старые серии, то предотвратить повторную закачку старых серий можно, отжав галочку в соответствующих местах при запуске нового торрента. По возможности, желательно не удалять старые серии как можно дольше, чтобы релизер не столько продолжал раздавать старые серии, а смог сконцентрироваться на новых.
pb.wtf



Скачать Доктор Рихтер через торрент https://d.radikal.ru/d02/1911/86/ab53895a9df9.jpg Скачать фильм Доктор Рихтер через торрент бесплантно в хорошем качестве Описание: Он превосходный специалист в своей области, врач - диагност, которому нет равных. К нему обращаются в тех сложнейших случаях, ... 8.4 10 7
Торрент: Зарегистрирован [2019-11-21 17:00] · скачан: 21 раз
Статус: √ проверено
Размер: 9.38 GB
Как cкачать? Как скачать Доктор Рихтер через торрент | qTorrent

% Раздел Тема Автор DL S | L
Наши сериалы [ 21.23 GB ] Доктор Рихтер / Сезон: 3 / Серии: 1-16 из 16 [2019 медицина HDTVRip 720p] bober100 Скачать
1 | 0
Наши сериалы [ 43.98 GB ] Доктор Рихтер / Сезон: 3 / Серии: 1-16 из 16 [2019 медицина HDTV 1080i] bober100 Скачать
1 | 0
Наши сериалы [ 10.35 GB ] Доктор Рихтер / Сезон: 3 / Серии: 1-16 из 16 [2019 медицина HDTVRip] bober100 Скачать
1 | 0
Наши сериалы [ 12.61 GB ] Доктор Рихтер / Сезон: 3 / Серии: 1-16 из 16 [2019 медицина HDTVRip-AVC] bober100 Скачать
1 | 0
Наши сериалы [ 9.74 GB ] Доктор Рихтер / Сезон: 3 / Серии: 1-16 из 16 [2019 SATRip-AVC] aleksan55 Скачать
1 | 0

28-11-2019 20:33  

Отключить всю рекламу на сайте

    Дорогой пользователь! Огромная просьба, поблагодарите релизера, оцените раздачу и оставьте свои комментарий, если Вы скачали Доктор Рихтер через торрент бесплатно! Внесите свою лепту в развитие PiratBit!
    Комментировать посты могут только пользователи прошедшие не сложную регистрацию
    Показать сообщения:    

    Доктор Рихтер через торрент
    Скачать бесплатно Доктор Рихтер
    Доктор Рихтер скачать торрент
    Доктор Рихтер смотреть онлайн
    Cкачать фильм Доктор Рихтер бесплатно
    Доктор Рихтер скачать торрент в хорошем качестве
    Доктор Рихтер смотреть онлайн бесплатно в хорошем качестве


    Вы не можете начинать темы
    Вы не можете отвечать на сообщения
    Вы не можете редактировать свои сообщения
    Вы не можете удалять свои сообщения
    Вы не можете голосовать в опросах
    Вы не можете прикреплять файлы к сообщениям
    Вы можете скачивать файлы