Ссылка на приватное зеркало нашего сайта всего за 1$. Внимание количество ограничено!!!

2 сезон

iTunes

1 сезон

1

2 сезон

2 сезон

iTunes

1 сезон

RePack

30

Ultimate

ВАЖНО

ИГРА 18+

pack

RePack

MK11
pack

Забери бонус

RePack

jed

!!Акция!!

Alien_Rage

RePack

fifa19

RePack

Assassins Creed: Odyssey

RePack

NEED FOR SPEED™ PAYBACK

4 сезон

9 сезон

Бесстыжие 9 сезон

Все сериалы

все сериалы на PB.wtf

RePack

FAR CRY 5
  

Проклятие «Мэри» / Mary (Майкл Гои) [2019, Ужасы, WEB-DL 720p] DUB [iTunes] pb.wtf

Проклятие «Мэри» через торрент pb.wtf

Размер: 2.66 GB | Добавлен: 1 год назад | Торрент скачан:89 раз
Скачать  

11-11-2019 18:16 Проклятие «Мэри» Скачать торрент  

Проклятие «Мэри» / Mary
Год выпуска: 2019
Страна: США
Жанр: Ужасы
Продолжительность: 01:24:59
Перевод: Дублированный | iTunes
Субтитры: отсутствуют

Режиссер: Майкл Гои

rating

В ролях: Гэри Олдман, Дженнифер Эспозито, Эмили Мортимер, Оуэн Тиг, Стефани Скотт, Майкл Лэндис, Мануэль Рульфо, Натали Жан, Хлоя Перрин, Клер Бирн, Кэтрин Келли

Описание: Глава семейства Дэвид покупает яхту на аукционе. Он надеется начать новый бизнес по морским перевозкам, и яхта «Мэри» должна стать счастливым билетом для него и его семьи. Но чем дальше в море уходит лодка, тем более жуткие вещи начинают происходить на борту.

Качество: WEB-DL 720p
Формат: MKV

Видео: MPEG-4 AVC, 4090 Кбит/с, 1280x532
Аудио: 48 kHz, AC3 Dolby Digital, 3/2 (L,C,R,l,r) + LFE ch, ~384 kbps
скриншот  скриншот  скриншот  скриншот  

Общее
Уникальный идентификатор : 199978196625045095729978964433933161178 (0x967266536CF29D29BBB570714277D2DA)
Полное имя : Proklyatie.Meri.2019.WEB-DL.720p.ELEKTRI4KA.UNIONGANG.mkv
Формат : Matroska
Версия формата : Version 4
Размер файла : 2,66 Гбайт
Продолжительность : 1 ч. 24 м.
Общий поток : 4475 Кбит/сек
Дата кодирования : UTC 2019-11-11 12:03:41
Программа кодирования : mkvmerge v8.3.0 ('Over the Horizon') 64bit
Библиотека кодирования : libebml v1.3.1 + libmatroska v1.4.2

Видео
Идентификатор : 1
Формат : AVC
Формат/Информация : Advanced Video Codec
Профиль формата : Main@L3.1
Настройки формата : 2 Ref Frames
Параметр CABAC формата : Нет
Параметр RefFrames формата : 2 кадра
Идентификатор кодека : V_MPEG4/ISO/AVC
Продолжительность : 1 ч. 24 м.
Битрейт : 4090 Кбит/сек
Ширина : 1280 пикселей
Высота : 532 пикселя
Соотношение сторон : 2,40:1
Режим частоты кадров : Постоянный
Частота кадров : 23,976 (24000/1001) кадра/сек
Цветовое пространство : YUV
Субдискретизация насыщенности : 4:2:0
Битовая глубина : 8 бит
Тип развёртки : Прогрессивная
Бит/(Пиксели*Кадры) : 0.250
Размер потока : 2,43 Гбайт (91%)
Заголовок : ELEKTRI4KA.UNIONGANG
Язык : English
Default : Да
Forced : Нет
Цветовой диапазон : Limited
Основные цвета : BT.709
Характеристики трансфера : BT.709
Коэффициенты матрицы : BT.709

Аудио
Идентификатор : 2
Формат : AC-3
Формат/Информация : Audio Coding 3
Коммерческое название : Dolby Digital
Идентификатор кодека : A_AC3
Продолжительность : 1 ч. 24 м.
Вид битрейта : Постоянный
Битрейт : 384 Кбит/сек
Каналы : 6 каналов
Channel layout : L R C LFE Ls Rs
Частота : 48,0 КГц
Частота кадров : 31,250 кадров/сек (1536 SPF)
Битовая глубина : 16 бит
Метод сжатия : С потерями
Размер потока : 233 Мбайт (9%)
Заголовок : iTunes (ELEKTRI4KA.UNIONGANG)
Язык : Russian
ServiceKind/String : Complete Main
Default : Да
Forced : Нет

Меню
00:00:00.000 : en:1
00:04:50.000 : en:2
00:14:01.000 : en:3
00:24:53.000 : en:4
00:33:53.000 : en:5
00:44:09.000 : en:6
00:53:26.000 : en:7
01:04:24.000 : en:8
01:14:47.000 : en:9
01:18:04.000 : en:10

pb.wtf



Скачать Проклятие «Мэри» через торрент https://d.radikal.ru/d10/1911/bf/5423508554fe.jpg Скачать фильм Проклятие «Мэри» через торрент бесплантно в хорошем качестве Описание: Глава семейства Дэвид покупает яхту на аукционе. Он надеется начать новый бизнес по морским перевозкам, и яхта «Мэри» должна ... 9 10 5
Торрент: Зарегистрирован [2019-11-11 18:16] · скачан: 89 раз
Статус: √ проверено
Размер: 2.66 GB
Как cкачать? Как скачать Проклятие «Мэри» через торрент | qTorrent

% Раздел Тема Автор DL S | L
Фильмы 2019-2020 [DVDrip, WEB-DLRip, HDrip] (DUB, MVO) [ 1.42 GB ] Проклятие «Мэри» / Mary [2019 BDRip] - Twi7ter Скачать
5 | 0
Фильмы 2019-2020 [DVDrip, WEB-DLRip, HDrip] (DUB, MVO) [ 1.46 GB ] Проклятие «Мэри» / Mary [2019 BDRip] bober100 Скачать
2 | 0
Фильмы [HD 720p, 1080p] (Хороший звук DUB, MVO) [ 3.55 GB ] Проклятие «Мэри» / Mary [2019 BDRip 720p] bober100 Скачать
1 | 0
Фильмы [HD 720p, 1080p] (Хороший звук DUB, MVO) [ 7.08 GB ] Проклятие «Мэри» / Mary [2019 BDRip 1080p] bober100 Скачать
1 | 0
Фильмы (Blu-ray, BD-Remux, HDDVD) [ 14.64 GB ] Проклятие «Мэри» / Mary [2019 BD Remux 1080p] bober100 Скачать
1 | 0
Фильмы (WEB-DL 720p, 1080p) [ 2.91 GB ] Проклятие «Мэри» / Mary [2019 WEB-DL 1080p] bober100 Скачать
1 | 0

28-11-2019 20:33  

Отключить всю рекламу на сайте

    Дорогой пользователь! Огромная просьба, поблагодарите релизера, оцените раздачу и оставьте свои комментарий, если Вы скачали Проклятие «Мэри» через торрент бесплатно! Внесите свою лепту в развитие PiratBit!
    Комментировать посты могут только пользователи прошедшие не сложную регистрацию
    Показать сообщения:    

    Проклятие «Мэри» через торрент
    Скачать бесплатно Проклятие «Мэри»
    Проклятие «Мэри» скачать торрент
    Проклятие «Мэри» смотреть онлайн
    Cкачать фильм Проклятие «Мэри» бесплатно
    Проклятие «Мэри» скачать торрент в хорошем качестве
    Проклятие «Мэри» смотреть онлайн бесплатно в хорошем качестве


    Вы не можете начинать темы
    Вы не можете отвечать на сообщения
    Вы не можете редактировать свои сообщения
    Вы не можете удалять свои сообщения
    Вы не можете голосовать в опросах
    Вы не можете прикреплять файлы к сообщениям
    Вы можете скачивать файлы