Ссылка на приватное зеркало нашего сайта всего за 1$. Внимание количество ограничено!!!

2 сезон

iTunes

1 сезон

1

iTunes

iTunes

iTunes

1 сезон

RePack

30

ИГРА 18+

pack

ВАЖНО

!!Акция!!

Alien_RageХит недели

RePack

MK11
pack

Забери бонус

RePack

jed

!!Акция!!

Alien_Rage

RePack

fifa19

RePack

Assassins Creed: Odyssey

RePack

NEED FOR SPEED™ PAYBACK

4 сезон

9 сезон

Бесстыжие 9 сезон

Все сериалы

все сериалы на PB.wtf

RePack

FAR CRY 5
  

Ивановы-Ивановы / Сезон: 4 / Серии: 1-21 из 21 (Фёдор Стуков) [2019, Комедия, WEB-DL 1080p] pb.wtf

Ивановы-Ивановы через торрент pb.wtf

Раздают: 1 [ 0 KB/s ]
Размер: 18.68 GB | Добавлен: 8 мес. назад | Торрент скачан:86 раз
Скачать  

11-11-2019 18:38 Ивановы-Ивановы Скачать торрент  

Ивановы-Ивановы
Год выпуска: 2019
Страна: Россия
Жанр: Комедия
Продолжительность: 00:25:00
Субтитры: отсутствуют

Режиссер: Фёдор Стуков

rating

В ролях: Михаил Трухин, Сергей Бурунов, Семён Трескунов, Александра Флоринская, Анна Уколова, Алексей Лукин, Юрий Ицков, Елизавета Арзамасова, Василина Юсковец, Юлия Подозёрова, Юлия Сулес, Ирина Ракшина, Александр Обласов, Грант Тохатян, Виктория Маслова, Виктория Клинкова, Алексей Розин, Валерий Панков, Артём Федотов

Описание: В новом сезоне, девиз которого «Каждый сам за себя», герои в исполнении Сергея Бурунова, Михаила Трухина, Анны Уколовой, Александры Флоринской, Семёна Трескунова и Алексея Лукина, строят не только семейные отношения, но и амбициозные карьерные планы. Так, Полина и Лида открывают собственный бутик, Лёша распахнёт двери своего зоопарка, Данила станет управляющим автосалона, заменив отца, а Антон тем временем создаёт интернет-магазин.

Качество: WEB-DL 1080p
Формат: MKV

Видео: MPEG4 AVC Video, H264, 16:9, 1920x1080, 25 fps, ~4900 kbps, 0.094 bit/pixel
Аудио: AC3 Dolby Digital, 48.0 kHz, 2/0 (L,R) ch, 192 kbps
скриншот  скриншот  скриншот  скриншот  

General
Unique ID : 202716751566876780171982949563978326043 (0x9881D3824FE911569B587CE46459A01B)
Complete name : D:\Ivanovy.Ivanovy.S04.2019.WEB-DL.(1080p).Getty\Ivanovy.Ivanovy.s04e01.2019.WEB-DL.(1080p).Getty.mkv
Format : Matroska
Format version : Version 2
File size : 934 MiB
Duration : 25 min 16 s
Overall bit rate mode : Variable
Overall bit rate : 5 165 kb/s
Encoded date : UTC 2019-11-11 16:36:34
Writing application : mkvmerge v4.0.0 ('The Stars were mine') сборка от Jun 6 2010 16:18:42
Writing library : libebml v1.0.0 + libmatroska v1.0.0

Video
ID : 1
Format : AVC
Format/Info : Advanced Video Codec
Format profile : High@L4.1
Format settings : CABAC / 5 Ref Frames
Format settings, CABAC : Yes
Format settings, ReFrames : 5 frames
Codec ID : V_MPEG4/ISO/AVC
Duration : 25 min 16 s
Bit rate mode : Variable
Bit rate : 4 871 kb/s
Maximum bit rate : 40.0 Mb/s
Width : 1 920 pixels
Height : 1 080 pixels
Display aspect ratio : 16:9
Frame rate mode : Constant
Frame rate : 25.000 FPS
Standard : PAL
Color space : YUV
Chroma subsampling : 4:2:0
Bit depth : 8 bits
Scan type : Progressive
Bits/(Pixel*Frame) : 0.094
Stream size : 880 MiB (94%)
Language : Russian
Default : Yes
Forced : No
Color range : Limited
Color primaries : BT.709
Transfer characteristics : BT.709
Matrix coefficients : BT.709

Audio
ID : 2
Format : AC-3
Format/Info : Audio Coding 3
Codec ID : A_AC3
Duration : 25 min 16 s
Bit rate mode : Constant
Bit rate : 192 kb/s
Channel(s) : 2 channels
Channel positions : Front: L R
Sampling rate : 48.0 kHz
Frame rate : 31.250 FPS (1536 SPF)
Bit depth : 16 bits
Compression mode : Lossy
Stream size : 34.7 MiB (4%)
Language : Russian
Service kind : Complete Main
Default : Yes
Forced : No

Раздача ведётся путём добавления новых серий, при каждом добавлении создаётся новый торрент. Чтобы начать докачку новой серии, пользователям необходимо сделать следующее:

- Остановить скачивание.
- Удалить старый торрент у себя из клиента (старые серии удалять не надо).
- Скачать новый торрент и запустить его у себя в клиенте вместо старого, при этом указать клиенту путь в старую папку куда и должно происходить скачивание новых серий.

Ваш клиент при этом должен произвести хеширование (проверку) старой папки (если не производит сам - помогите ему сделать это), и будет докачивать только те серии которых у вас ещё нет. Старые серии при этом не удаляются, а продолжают раздаваться!
Если вы уже удалили старые серии, то предотвратить повторную закачку старых серий можно, отжав галочку в соответствующих местах при запуске нового торрента. По возможности, желательно не удалять старые серии как можно дольше, чтобы релизер не столько продолжал раздавать старые серии, а смог сконцентрироваться на новых.
pb.wtf



Скачать Ивановы-Ивановы через торрент https://i111.fastpic.ru/big/2019/1111/3c/88abc88a9fa4e0570a26fba19bfa543c.png Скачать фильм Ивановы-Ивановы через торрент бесплантно в хорошем качестве Описание: В новом сезоне, девиз которого «Каждый сам за себя», герои в исполнении Сергея Бурунова, Михаила Трухина, Анны Уколовой, ... 10 10 14
Торрент: Зарегистрирован [2020-02-12 18:45] · скачан: 86 раз
Статус: √ проверено
Размер: 18.68 GB
Как cкачать? Как скачать Ивановы-Ивановы через торрент | qTorrent

% Раздел Тема Автор DL S | L
Наши сериалы [ 6.13 GB ] Ивановы-Ивановы / Сезон: 4 / Серии: 1-21 из 21 [2019 SATRip] bober100 Скачать
4 | 3
Наши сериалы [ 7.18 GB ] Ивановы-Ивановы / Сезон: 4 / Серии: 1-21 из 21 [2019 WEB-DLRip] bober100 Скачать
1 | 0
Наши сериалы [ 11.51 GB ] Ивановы-Ивановы / Сезон: 4 / Серии: 1-21 из 21 [2019 WEB-DL 720p] bober100 Скачать
1 | 0
Наши сериалы [ 6.48 GB ] Ивановы-Ивановы / Сезон: 4 / Серии: 1-21 из 21 [2019 WEB-DLRip-AVC] bober100 Скачать
1 | 0


Последний раз редактировалось: bober100 (2019-11-17 18:40), всего редактировалось 1 раз

28-11-2019 20:33  

Отключить всю рекламу на сайте

    Дорогой пользователь! Огромная просьба, поблагодарите релизера, оцените раздачу и оставьте свои комментарий, если Вы скачали Ивановы-Ивановы через торрент бесплатно! Внесите свою лепту в развитие PiratBit!
    Комментировать посты могут только пользователи прошедшие не сложную регистрацию
    Показать сообщения:    

    Ивановы-Ивановы через торрент
    Скачать бесплатно Ивановы-Ивановы
    Ивановы-Ивановы скачать торрент
    Ивановы-Ивановы смотреть онлайн
    Cкачать фильм Ивановы-Ивановы бесплатно
    Ивановы-Ивановы скачать торрент в хорошем качестве
    Ивановы-Ивановы смотреть онлайн бесплатно в хорошем качестве


    Вы не можете начинать темы
    Вы не можете отвечать на сообщения
    Вы не можете редактировать свои сообщения
    Вы не можете удалять свои сообщения
    Вы не можете голосовать в опросах
    Вы не можете прикреплять файлы к сообщениям
    Вы можете скачивать файлы