Ссылка на приватное зеркало нашего сайта всего за 1$. Внимание количество ограничено!!!

2 сезон

iTunes

1 сезон

1

2 сезон

2 сезон

iTunes

1 сезон

RePack

30

Ultimate

ВАЖНО

ИГРА 18+

pack

RePack

MK11
pack

Забери бонус

RePack

jed

!!Акция!!

Alien_Rage

RePack

fifa19

RePack

Assassins Creed: Odyssey

RePack

NEED FOR SPEED™ PAYBACK

4 сезон

9 сезон

Бесстыжие 9 сезон

Все сериалы

все сериалы на PB.wtf

RePack

FAR CRY 5
  

Падение ангела / Angel Has Fallen (Рик Роман Во) [2019, боевик, WEB-DL 108Op] [DUB] [iTunes] pb.wtf

Падение ангела через торрент pb.wtf

Раздают: 6 [ 128 KB/s ]
Размер: 4.18 GB | Добавлен: 1 год назад | Торрент скачан:716 раз
Скачать  

11-11-2019 19:32 Падение ангела Скачать торрент  

Падение ангела / Angel Has Fallen
Год выпуска: 2019
Страна: США
Жанр: боевик
Продолжительность: 02:00:44
Перевод: Дублированный [iTunes]
Субтитры: отсутствуют

Режиссер: Рик Роман Во

В ролях: Джерард Батлер, Морган Фриман, Пайпер Перабо, Джада Пинкетт Смит, Ник Нолти, Лэнс Реддик, Дэнни Хьюстон, Тим Блейк Нельсон, Майкл Лэндис, Крис Браунинг

Описание: На президента США совершено покушение, главный обвиняемый - верный ангел-хранитель главы государства и агент секретной службы Майк Бэннинг. Скрываясь от ФБР, он должен найти тех, кто его подставил, и спасти страну и ее лидера от смертельной угрозы.

rating

скриншот  

Качество: WEB-DL 108Op
Формат: MKV
Видео: MPEG-4 AVC, 4569 Кбит/с, 1912x796
Аудио: Русский (AC3, 6 ch, 384 Кбит/с)
скриншот   скриншот   скриншот  

General
Unique ID : 237066678867564949244237491288473001194 (0xB25961AE3A30469F5D62AD654D1EDCEA)
Complete name : E:\Angel.Has.Fallen.2019.WEB-DL.1080p.seleZen.mkv
Format : Matroska
Format version : Version 4 / Version 2
File size : 4.18 GiB
Duration : 2 h 0 min
Overall bit rate : 4 955 kb/s
Movie name : Angel Has Fallen 2019 from селезень
Encoded date : UTC 2019-11-11 19:23:24
Writing application : mkvmerge v37.0.0 ('Leave It') 64-bit
Writing library : libebml v1.3.9 + libmatroska v1.5.2

Video
ID : 1
Format : AVC
Format/Info : Advanced Video Codec
Format profile : High@L4
Format settings : CABAC / 5 Ref Frames
Format settings, CABAC : Yes
Format settings, RefFrames : 5 frames
Codec ID : V_MPEG4/ISO/AVC
Duration : 2 h 0 min
Bit rate : 4 472 kb/s
Width : 1 912 pixels
Height : 796 pixels
Display aspect ratio : 2.40:1
Frame rate mode : Constant
Frame rate : 23.976 (24000/1001) FPS
Color space : YUV
Chroma subsampling : 4:2:0
Bit depth : 8 bits
Scan type : Progressive
Bits/(Pixel*Frame) : 0.123
Stream size : 3.77 GiB (90%)
Language : English
Default : Yes
Forced : No
Color range : Limited
Color primaries : BT.709
Transfer characteristics : BT.709
Matrix coefficients : BT.709

Audio
ID : 2
Format : AC-3
Format/Info : Audio Coding 3
Format settings, Endianness : Big
Codec ID : A_AC3
Duration : 2 h 0 min
Bit rate mode : Constant
Bit rate : 384 kb/s
Channel(s) : 6 channels
Channel positions : Front: L C R, Side: L R, LFE
Sampling rate : 48.0 kHz
Frame rate : 31.250 FPS (1536 SPF)
Bit depth : 16 bits
Compression mode : Lossy
Delay relative to video : -42 ms
Stream size : 332 MiB (8%)
Title : iTunes
Language : Russian
Service kind : Complete Main
Default : Yes
Forced : Yes

Menu
00:00:00.000 : en:1
00:01:15.000 : en:2
00:11:16.000 : en:3
00:22:56.000 : en:4
00:32:13.000 : en:5
00:40:44.000 : en:6
00:50:39.000 : en:7
01:02:49.000 : en:8
01:11:51.000 : en:9
01:19:18.000 : en:10
01:29:53.000 : en:11
01:40:07.000 : en:12
01:52:52.000 : en:13

pb.wtf



Скачать Падение ангела через торрент https://a.radikal.ru/a11/1908/7b/2690ca10c3a0.jpg Скачать фильм Падение ангела через торрент бесплантно в хорошем качестве Описание: На президента США совершено покушение, главный обвиняемый - верный ангел-хранитель главы государства и агент секретной службы ... 9.2 10 25
Торрент: Зарегистрирован [2019-11-11 19:32] · скачан: 716 раз
Статус: √ проверено
Размер: 4.18 GB
Как cкачать? Как скачать Падение ангела через торрент | qTorrent

% Раздел Тема Автор DL S | L
Ultra HD (UHD: 2K, 4K, 8K) — видео сверхвысокой чёткости [ 63.67 GB ] Падение ангела / Angel Has Fallen [2019 UHD BDRemux 2160p ] DUB [] bober100 Скачать
1 | 1
Фильмы с авторской озвучкой [ 2.15 GB ] Падение ангела / Angel Has Fallen [2019 BDRip-AVC] AVO [Есарев] - ExKinoRay Mr. Grab Скачать
1 | 0
Фильмы (Blu-ray, BD-Remux, HDDVD) [ 33.44 GB ] Падение ангела / Angel Has Fallen [2019 BD Remux 1080p] DUB [] bober100 Скачать
1 | 0
Ultra HD (UHD: 2K, 4K, 8K) — видео сверхвысокой чёткости [ 74.72 GB ] Падение ангела / Angel Has Fallen [2019 UHD BDRemux 2160p ] DUB [] +AVO [Д.Есарев] bober100 Скачать
1 | 0
Фильмы [HD 720p, 1080p] (Хороший звук DUB, MVO) [ 2.07 GB ] Падение ангела / Angel Has Fallen [2019 BDRip 1080p HEVC ] Мичман37 Скачать
1 | 0
Фильмы [HD 720p, 1080p] (Хороший звук DUB, MVO) [ 14.68 GB ] Падение ангела / Angel Has Fallen [2019 BDRip 1080p] DUB [] bober100 Скачать
2 | 0
Фильмы [HD 720p, 1080p] (Хороший звук DUB, MVO) [ 5.31 GB ] Падение ангела / Angel Has Fallen [2019 BDRip 720p] DUB [] bober100 Скачать
1 | 0

28-11-2019 20:33  

Отключить всю рекламу на сайте

    Дорогой пользователь! Огромная просьба, поблагодарите релизера, оцените раздачу и оставьте свои комментарий, если Вы скачали Падение ангела через торрент бесплатно! Внесите свою лепту в развитие PiratBit!
    Комментировать посты могут только пользователи прошедшие не сложную регистрацию
    Показать сообщения:    

    Падение ангела через торрент
    Скачать бесплатно Падение ангела
    Падение ангела скачать торрент
    Падение ангела смотреть онлайн
    Cкачать фильм Падение ангела бесплатно
    Падение ангела скачать торрент в хорошем качестве
    Падение ангела смотреть онлайн бесплатно в хорошем качестве


    Вы не можете начинать темы
    Вы не можете отвечать на сообщения
    Вы не можете редактировать свои сообщения
    Вы не можете удалять свои сообщения
    Вы не можете голосовать в опросах
    Вы не можете прикреплять файлы к сообщениям
    Вы можете скачивать файлы