Ссылка на приватное зеркало нашего сайта всего за 1$. Внимание количество ограничено!!!

2 сезон

iTunes

1 сезон

1

iTunes

iTunes

iTunes

1 сезон

RePack

30

ИГРА 18+

pack

ВАЖНО

!!Акция!!

Alien_RageХит недели

RePack

MK11
pack

Забери бонус

RePack

jed

!!Акция!!

Alien_Rage

RePack

fifa19

RePack

Assassins Creed: Odyssey

RePack

NEED FOR SPEED™ PAYBACK

4 сезон

9 сезон

Бесстыжие 9 сезон

Все сериалы

все сериалы на PB.wtf

RePack

FAR CRY 5
  

Мылодрама / Сезон: 2 / Серии: 1-8 из 8 + Фильм о сериале (Илья Куликов) [2019, Комедия, WEB-DLRip] pb.wtf

Мылодрама через торрент pb.wtf

Качают: 1 [ 0 KB/s ]
Размер: 3.11 GB | Добавлен: 11 мес. назад | Торрент скачан:113 раз
Скачать  

11-11-2019 21:59 Мылодрама Скачать торрент  

Мылодрама
Год выпуска: 2019
Страна: Россия
Жанр: Комедия
Продолжительность: ~ 00:25:00
Субтитры: отсутствуют

Режиссер: Илья Куликов



В ролях: Сергей Бурунов, Григорий Калинин, Маруся Климова, Юрий Грубник, Ростислав Бершауэр, Анна Котова-Дерябина, Анна Миронова (II), Ольга Дибцева, Нина Гогаева, Павел Мисаилов

Описание: Как только генеральным директором телеканала ТСВ стал бывший работник бензоколонки Владислав Поляков, дела неожиданно пошли в гору. Придуманный им сериал «Кровавые шлюхи в яме» приобрел огромную популярность, а создававшая его команда стала одной семьёй. Неожиданный успех не входил в планы владельца тридцати процентов акций Андрея Симонова, он-то как раз рассчитывал на провал, который позволил бы ему приобрести оставшуюся долю. Симонову остается только одно: подкупить Влада, чтобы тот ушел с поста. Но не тут-то было: владелец основного пакета акций Лариса Романова уверена, что Влад — гений, и не может позволить ему уйти. Чтобы понять, в чем секрет его успеха, она решает подобраться к нему поближе. Тем временем грядет второй сезон «Кровавых шлюх в яме», и команда сериала собирается вновь. Влад огорошивает всех новостью: им предстоит делать не только второй сезон, но и праймовое ток-шоу, стендап, программу про сверхъестественное, а также новости.

Качество: WEB-DLRip
Формат: AVI

Видео: XviD, ~ 1600 Кбит/с, 720x304
Аудио: AC3, 2 ch, 192 Кбит/с
скриншот  скриншот  скриншот  

скриншот  скриншот  скриншот  

Общее
Полное имя : C:\Мылодрама..2019.WEB-DLRip.Files-x\01. Мылодрама..2019.WEB-DLRip.Files-x.avi
Формат : AVI
Формат/Информация : Audio Video Interleave
Размер файла : 340 Мбайт
Продолжительность : 26 м. 25 с.
Общий поток : 1801 Кбит/сек
Программа кодирования : VirtualDubMod 1.5.10.3 | www.virtualdub-fr.org || (build 2550/release)
Библиотека кодирования : VirtualDubMod build 2550/release

Видео
Идентификатор : 0
Формат : MPEG-4 Visual
Профиль формата : Advanced Simple@L5
Настройки формата : BVOP1 / Custom Matrix
Параметр BVOP формата : 1
Параметр QPel формата : Нет
Параметр GMC формата : Без точки перехода
Параметр матрицы формата : Выборочная
Идентификатор кодека : XVID
Идентификатор кодека/Подсказка : XviD
Продолжительность : 26 м. 25 с.
Битрейт : 1529 Кбит/сек
Ширина : 720 пикселей
Высота : 304 пикселя
Соотношение сторон : 2,35:1
Частота кадров : 25,000 кадров/сек
Цветовое пространство : YUV
Субдискретизация насыщенности : 4:2:0
Битовая глубина : 8 бит
Тип развёртки : Прогрессивная
Метод сжатия : С потерями
Бит/(Пиксели*Кадры) : 0.279
Размер потока : 289 Мбайт (85%)
Библиотека кодирования : XviD 73

Аудио
Идентификатор : 1
Формат : AC-3
Формат/Информация : Audio Coding 3
Коммерческое название : Dolby Digital
Идентификатор кодека : 2000
Продолжительность : 26 м. 25 с.
Вид битрейта : Постоянный
Битрейт : 192 Кбит/сек
Каналы : 2 канала
ChannelLayout : L R
Частота : 48,0 КГц
Частота кадров : 31,250 кадров/сек (1536 SPF)
Битовая глубина : 16 бит
Метод сжатия : С потерями
Размер потока : 36,3 Мбайт (11%)
Выравнивание : Разделение по промежуткам
ServiceKind/String : Complete Main

Внимание! Раздача ведётся путём добавления новых серий; при каждом добавлении создfётся новый торрент. Чтобы начать докачку новой серии, пользователям необходимо сделать следующее: (1) остановить скачивание, (2) удалить старый торрент у себя из клиента (старые серии удалять не надо), (3) скачать новый торрент и запустить его у себя в клиенте вместо старого, при этом указать клиенту путь в старую папку куда и должно происходить скачивание новых серий.

Ваш клиент при этом должен произвести хеширование (проверку) старой папки (если не производит сам - помогите ему сделать это), и будет докачивать только те серии которых у вас ещё нет. Старые серии при этом не удаляются, а продолжают раздаваться!

Eсли вы уже удалили старые серии, то предотвратить повторную закачку старых серий можно, отжав галочку в соответсвующих местах при запуске нового торрента.
pb.wtf



Скачать Мылодрама через торрент https://img16.lostpic.net/2019/11/11/b8bb0c6dc3f9a11be63136ffad68e595.jpg Скачать фильм Мылодрама через торрент бесплантно в хорошем качестве Описание: Как только генеральным директором телеканала ТСВ стал бывший работник бензоколонки Владислав Поляков, дела неожиданно пошли в ... 10 10 12
Торрент: Зарегистрирован [2019-11-15 13:35] · скачан: 113 раз
Статус: √ проверено
Размер: 3.11 GB
Как cкачать? Как скачать Мылодрама через торрент | qTorrent

% Раздел Тема Автор DL S | L
Наши сериалы [ 5.49 GB ] Мыло / Сезон: 2 / Серии: 1-8 из 8 + Фильм о сериале [2019 WEB-DL 720p] bober100 Скачать
1 | 0
Наши сериалы [ 3.34 GB ] Мыло / Сезон: 2 / Серии: 1-8 из 8 + Фильм о сериале [2019 WEBRip-AVC] bober100 Скачать
1 | 0

28-11-2019 20:33  

Отключить всю рекламу на сайте

    Дорогой пользователь! Огромная просьба, поблагодарите релизера, оцените раздачу и оставьте свои комментарий, если Вы скачали Мылодрама через торрент бесплатно! Внесите свою лепту в развитие PiratBit!
    Комментировать посты могут только пользователи прошедшие не сложную регистрацию
    Показать сообщения:    

    Мылодрама через торрент
    Скачать бесплатно Мылодрама
    Мылодрама скачать торрент
    Мылодрама смотреть онлайн
    Cкачать фильм Мылодрама бесплатно
    Мылодрама скачать торрент в хорошем качестве
    Мылодрама смотреть онлайн бесплатно в хорошем качестве


    Вы не можете начинать темы
    Вы не можете отвечать на сообщения
    Вы не можете редактировать свои сообщения
    Вы не можете удалять свои сообщения
    Вы не можете голосовать в опросах
    Вы не можете прикреплять файлы к сообщениям
    Вы можете скачивать файлы