Ссылка на приватное зеркало нашего сайта всего за 1$. Внимание количество ограничено!!!

2 сезон

iTunes

1 сезон

1

iTunes

iTunes

iTunes

1 сезон

RePack

30

ИГРА 18+

pack

ВАЖНО

!!Акция!!

Alien_RageХит недели

RePack

MK11
pack

Забери бонус

RePack

jed

!!Акция!!

Alien_Rage

RePack

fifa19

RePack

Assassins Creed: Odyssey

RePack

NEED FOR SPEED™ PAYBACK

4 сезон

9 сезон

Бесстыжие 9 сезон

Все сериалы

все сериалы на PB.wtf

RePack

FAR CRY 5
  

Возвращение / Сезон: 1 / Серии: 1-8 из 8 (Мирослав Малич) [2019, Мелодрама, WEBRip] pb.wtf

Возвращение через торрент pb.wtf

Размер: 4.59 GB | Добавлен: 11 мес. назад | Торрент скачан:35 раз
Скачать  

12-11-2019 01:03 Возвращение Скачать торрент  

Возвращение
Год выпуска: 2019
Страна: Россия, Украина
Жанр: Мелодрама
Продолжительность: ~ 00:45:27
Перевод: Не требуется
Субтитры: отсутствуют

Режиссер: Мирослав Малич

В ролях: Зоряна Марченко, Михаил Гаврилов (II), Янина Студилина, Анатолий Котенёв, Александр Наумов, Ольга Сумская, Борис Георгиевский, Инна Капинос, Александр Кобзарь, Анастасия Цымбалару, Павел Москаль, Алексей Нагрудный, Олег Савкин, Наталия Бабенко

Описание: Маша и Лялька – родные сестры, но с абсолютно разными характерами. Послушная дочка и отличница Маша привыкла всем помогать и не требовать многого. Она с детства знает, что любовь нужно заслужить. Другое дело – ее младшая сестра Лялька: красотка, артистка, любимица родителей и покорительница сердец. Маша и предположить не может, что однажды на нее обратит внимание тот, о ком она мечтает по ночам, – красавец и звезда мотоспорта Олег Томилин. Вопреки желанию родителей, парень позовет Машу замуж. Но совместная жизнь окажется совсем не сладкой: беды и неприятности, одна подозрительнее другой, идут чередой, и весь этот ад заканчивается трагедией...

Качество: WEBRip
Формат: AVI

Видео: XviD, ~ 1609 Кбит/с, 720x400, 25 кадр/с
Аудио: AC3, 2 ch, 192 Кбит/с
скриншот  скриншот  скриншот  скриншот  

General
Complete name: C:01.Возвращиние.(2019).WEBRip.by.Nicodem.Files-x.avi
Format: AVI
Format/Info: Audio Video Interleave
File size: 589 MiB
Duration: 45mn 27s
Overall bit rate: 1 810 Kbps
Writing application: VirtualDubMod 1.5.10.3 | www.virtualdub-fr.org || (build 2550/release)
Writing library: VirtualDubMod build 2550/release

Video
ID: 0
Format: MPEG-4 Visual
Format profile: Advanced Simple@L5
Format settings, BVOP: 1
Format settings, QPel: No
Format settings, GMC: No warppoints
Format settings, Matrix: Custom
Codec ID: XVID
Codec ID/Hint: XviD
Duration: 45mn 27s
Bit rate: 1 609 Kbps
Width: 720 pixels
Height: 400 pixels
Display aspect ratio: 16:9
Frame rate: 25.000 fps
Color space: YUV
Chroma subsampling: 4:2:0
Bit depth: 8 bits
Scan type: Progressive
Compression mode: Lossy
Bits/(Pixel*Frame): 0.223
Stream size: 523 MiB (89%)
Writing library: XviD 73

Audio
ID: 1
Format: AC-3
Format/Info: Audio Coding 3
Mode extension: CM (complete main)
Codec ID: 2000
Duration: 45mn 27s
Bit rate mode: Constant
Bit rate: 192 Kbps
Channel(s): 2 channels
Channel positions: Front: L R
Sampling rate: 48.0 KHz
Bit depth: 16 bits
Compression mode: Lossy
Stream size: 62.4 MiB (11%)
Alignment: Split accross interleaves
Interleave, duration: 40 ms (1.00 video frame)
Interleave, preload duration: 500 ms

Внимание! Раздача ведётся путём добавления новых серий; при каждом добавлении создfётся новый торрент. Чтобы начать докачку новой серии, пользователям необходимо сделать следующее: (1) остановить скачивание, (2) удалить старый торрент у себя из клиента (старые серии удалять не надо), (3) скачать новый торрент и запустить его у себя в клиенте вместо старого, при этом указать клиенту путь в старую папку куда и должно происходить скачивание новых серий.

Ваш клиент при этом должен произвести хеширование (проверку) старой папки (если не производит сам - помогите ему сделать это), и будет докачивать только те серии которых у вас ещё нет. Старые серии при этом не удаляются, а продолжают раздаваться!

Eсли вы уже удалили старые серии, то предотвратить повторную закачку старых серий можно, отжав галочку в соответсвующих местах при запуске нового торрента.
pb.wtf



Скачать Возвращение через торрент https://i111.fastpic.ru/big/2019/1112/bd/03abc7829033dcaf67211adb8f35dabd.jpg Скачать фильм Возвращение через торрент бесплантно в хорошем качестве Описание: Маша и Лялька – родные сестры, но с абсолютно разными характерами. Послушная дочка и отличница Маша привыкла всем помогать и не ... 10 10 3
Торрент: Зарегистрирован [2019-11-15 17:39] · скачан: 35 раз
Статус: √ проверено
Размер: 4.59 GB
Как cкачать? Как скачать Возвращение через торрент | qTorrent

% Раздел Тема Автор DL S | L
Наши сериалы [ 4.53 GB ] Возвращение / Сезон: 1 / Серии: 1-8 из 8 [2019 Мело WEBRip-AVC] bober100 Скачать
1 | 0
Наши сериалы [ 4.34 GB ] Реальные пацаны. Возвращение / 7 Сезон: / 1-8 Серия из 20 [2014 Россия WEB-DL 720p) GEKADOL Скачать
1 | 0
Наши сериалы [ 5.04 GB ] Брак по завещанию 2.Возвращение Сандры [2011 IPTVRip] Sудья Скачать
1 | 0

28-11-2019 20:33  

Отключить всю рекламу на сайте

    Дорогой пользователь! Огромная просьба, поблагодарите релизера, оцените раздачу и оставьте свои комментарий, если Вы скачали Возвращение через торрент бесплатно! Внесите свою лепту в развитие PiratBit!
    Комментировать посты могут только пользователи прошедшие не сложную регистрацию
    Показать сообщения:    

    Возвращение через торрент
    Скачать бесплатно Возвращение
    Возвращение скачать торрент
    Возвращение смотреть онлайн
    Cкачать фильм Возвращение бесплатно
    Возвращение скачать торрент в хорошем качестве
    Возвращение смотреть онлайн бесплатно в хорошем качестве


    Вы не можете начинать темы
    Вы не можете отвечать на сообщения
    Вы не можете редактировать свои сообщения
    Вы не можете удалять свои сообщения
    Вы не можете голосовать в опросах
    Вы не можете прикреплять файлы к сообщениям
    Вы можете скачивать файлы