новый адрес
Ссылка на приватное зеркало всего за 1$. Внимание количество ограничено!!!

iTunes

1+1

iTunes

мы

WEB-DL

1

iTunes

Чернобыль

iTunes

Ральф против интернета

Лицензия

ПШазам

Лицензия

Оно 2

Лицензия

30
pack

Вам бонус

ВАЖНО

!!Акция!!

Alien_RageХит недели

RePack

Resident Evil 21

ИГРА 18+

pack

RePack

jed

!!Акция!!

Alien_Rage

RePack

fifa19

RePack

Assassins Creed: Odyssey

RePack

NEED FOR SPEED™ PAYBACK

3 сезон

9 сезон

Бесстыжие 9 сезон

Все сериалы

все сериалы на PB.wtf

RePack

FAR CRY 5
Ребята, катастрофически не хватает 1900р. для оплаты серверов за Октябрь (всвязи с блокировками трафик упал в 3 раза), 1-2р., выручайте.
  

Падение ангела / Angel Has Fallen (Рик Роман Во) [2019, боевик, WEB-DLRip-AVC] DUB [iTunes] - ExKinoRay pb.wtf

Падение ангела через торрент pb.wtf

Раздают: 350 [ 1023 KB/s ] Качают: 8 [ 0 KB/s ]
Размер: 2.15 GB | Добавлен: 26 д. назад | Торрент скачан:1386 раз
Скачать  

12-11-2019 03:36 Падение ангела Скачать торрент  

Название: Падение ангела
Оригинальное название: Angel Has Fallen
Год выпуска: 2019
Жанр: Боевик
Режиссер: Рик Роман Во
В ролях: Джерард Батлер, Морган Фримен, Фредерик Шмидт, Дэнни Хьюстон, Рокки Уильямс, Пайпер Перабо, Джада Пинкетт Смит, Гарри Дитсон, Ник Нолти, Лэнс Реддик, Тим Блэйк Нельсон, Крис Браунинг, Екатерина Гусарова, Ори Феффер, Жасмин Хайд, Майкл Лэндис, Марк Арнольд, Керри Шейл, Эндрю Брук, Мартин Берман, Райан Олива, Дерек Сиоу

Описание: На президента США совершено покушение, главный обвиняемый — верный ангел-хранитель главы государства и агент секретной службы Майк Бэннинг. Скрываясь от ФБР, он должен найти тех, кто его подставил, и спасти страну и ее лидера от смертельной угрозы.

rating

Страна: США
Студия: Campbell Grobman Films, Eclectic Pictures, G-BASE
Продолжительность: 02:00:44
Перевод: Дублированный | iTunes

Формат: MKV
Качество: WEB-DLRip-AVC
Видео: MPEG-4 AVC, 1024x426 (2.40:1), 23.976 fps, 2162 Kbps, 0.207 bit/pixel
Аудио: 48 kHz, AC3, 5.1, 384 Kbps | iTunes | RUS |
General
Unique ID : 218426818478878563634297216650770938281 (0xA453799BFF27C140B5870189201079A9)
Complete name : F:\Angel.Has.Fallen.2019.WEB-DL.ExKinoRay.mkv
Format : Matroska
Format version : Version 2
File size : 2.15 GiB
Duration : 2 h 0 min
Overall bit rate : 2 547 kb/s
Movie name : Angel Has Fallen 2019 from ExKinoRay
Encoded date : UTC 2019-11-12 02:52:49
Writing application : mkvmerge v5.6.0 ('Kenya Kane') built on May 27 2012 16:44:04
Writing library : libebml v1.2.3 + libmatroska v1.3.0

Video
ID : 1
Format : AVC
Format/Info : Advanced Video Codec
Format profile : High@L4.1
Format settings, CABAC : Yes
Format settings, ReFrames : 11 frames
Codec ID : V_MPEG4/ISO/AVC
Duration : 2 h 0 min
Bit rate : 2 162 kb/s
Width : 1 024 pixels
Height : 426 pixels
Display aspect ratio : 2.40:1
Frame rate mode : Constant
Frame rate : 23.976 (24000/1001) FPS
Original frame rate : 23.976 (23976/1000) FPS
Color space : YUV
Chroma subsampling : 4:2:0
Bit depth : 8 bits
Scan type : Progressive
Bits/(Pixel*Frame) : 0.207
Stream size : 1.78 GiB (83%)
Title : Enigma
Writing library : x264 core 152 r2851 ba24899
Encoding settings : cabac=1 / ref=11 / deblock=1:-2:-2 / analyse=0x3:0x113 / me=umh / subme=10 / psy=1 / psy_rd=1.05:0.08 / mixed_ref=1 / me_range=32 / chroma_me=1 / trellis=2 / 8x8dct=1 / cqm=0 / deadzone=21,11 / fast_pskip=0 / chroma_qp_offset=-3 / threads=12 / lookahead_threads=3 / sliced_threads=0 / nr=0 / decimate=0 / interlaced=0 / bluray_compat=0 / constrained_intra=0 / bframes=10 / b_pyramid=2 / b_adapt=2 / b_bias=0 / direct=3 / weightb=1 / open_gop=0 / weightp=2 / keyint=240 / keyint_min=23 / scenecut=40 / intra_refresh=0 / rc=2pass / mbtree=0 / bitrate=2162 / ratetol=1.0 / qcomp=0.60 / qpmin=0 / qpmax=51 / qpstep=4 / cplxblur=20.0 / qblur=0.5 / ip_ratio=1.40 / pb_ratio=1.30 / aq=1:1.00
Default : Yes
Forced : No
Color range : Limited
Color primaries : BT.709
Transfer characteristics : BT.709
Matrix coefficients : BT.709

Audio
ID : 2
Format : AC-3
Format/Info : Audio Coding 3
Mode extension : CM (complete main)
Format settings, Endianness : Big
Codec ID : A_AC3
Duration : 2 h 0 min
Bit rate mode : Constant
Bit rate : 384 kb/s
Channel(s) : 6 channels
Channel positions : Front: L C R, Side: L R, LFE
Sampling rate : 48.0 kHz
Frame rate : 31.250 FPS (1536 spf)
Compression mode : Lossy
Stream size : 332 MiB (15%)
Title : iTunes
Language : Russian
Default : Yes
Forced : No

Menu
00:00:00.000 : en:1
00:01:15.000 : en:2
00:11:16.000 : en:3
00:22:56.000 : en:4
00:32:13.000 : en:5
00:40:44.000 : en:6
00:50:39.000 : en:7
01:02:49.000 : en:8
01:11:51.000 : en:9
01:19:18.000 : en:10
01:29:53.000 : en:11
01:40:07.000 : en:12
01:52:52.000 : en:13


Релиз от:

Автор релиза: pb.wtf



Скачать Падение ангела через торрент https://img16.lostpic.net/2019/11/11/4613a9373c5a9d661ee9cbe67c4d27e1.jpg Скачать фильм Падение ангела через торрент бесплантно в хорошем качестве Описание: На президента США совершено покушение, главный обвиняемый — верный ангел-хранитель главы государства и агент секретной службы ... 9.5 10 37
Info! Золотая раздача, скачанное не засчитывается.
Торрент: Зарегистрирован [2019-11-12 03:36] · скачан: 1 386 раз
Статус: √ проверено
Размер: 2.15 GB
Как cкачать? Как скачать Падение ангела через торрент | qTorrent

% Раздел Тема Автор DL S | L
Фильмы 2019 [DVDrip, WEB-DLRip, HDrip] (DUB, MVO) [ 2.43 GB ] Падение ангела / Angel Has Fallen [2019 HDRip-AVC] - ExKinoRay Enigma2010 Скачать
78 | 1

28-11-2019 20:33  

Отключить всю рекламу на сайте


12-11-2019 09:27 Падение ангела Скачать торрент  

Такого трэшака америкосы ещё не снимали. Убить своего президента что бы напасть частной военной компанией на ядерную державу. Гениальный план. Они свято верят что при наступлении ядерной зимы всё будет продаваться за доллары?pb.wtf



12-11-2019 10:26 Падение ангела Скачать торрент  

Фильмы где снимается русофоб морган фриман - шляпа .pb.wtf



15-11-2019 16:42 Падение ангела Скачать торрент  

CTEHbKA писал(а):

Фильмы где снимается русофоб морган фриман - шляпа .

зря !! как актер фриман классный!!pb.wtf



16-11-2019 11:50 Падение ангела Скачать торрент  

1001 ночьpb.wtf





Последний раз редактировалось: serj- (2019-11-16 16:41), всего редактировалось 1 раз

16-11-2019 15:49 Падение ангела Скачать торрент  

падение олимпа, падение лондона когда это закончитсяpb.wtf



16-11-2019 20:01 Падение ангела Скачать торрент  

medet83 писал(а):

падение олимпа, падение лондона когда это закончится

я так и подумал 2 часть ))))pb.wtf



22-11-2019 17:56 Падение ангела Скачать торрент  

нормальный, только линейный очнь.pb.wtf



22-11-2019 18:20 Падение ангела Скачать торрент  

шутер от 3д.норм.pb.wtf



    Дорогой пользователь! Огромная просьба, поблагодарите релизера, оцените раздачу и оставьте свои комментарий, если Вы скачали Падение ангела через торрент бесплатно! Внесите свою лепту в развитие PiratBit!
    Комментировать посты могут только пользователи прошедшие не сложную регистрацию
    Показать сообщения:    

    Падение ангела через торрент
    Скачать бесплатно Падение ангела
    Падение ангела скачать торрент
    Падение ангела смотреть онлайн
    Cкачать фильм Падение ангела бесплатно
    Падение ангела скачать торрент в хорошем качестве
    Падение ангела смотреть онлайн бесплатно в хорошем качестве


    Вы не можете начинать темы
    Вы не можете отвечать на сообщения
    Вы не можете редактировать свои сообщения
    Вы не можете удалять свои сообщения
    Вы не можете голосовать в опросах
    Вы не можете прикреплять файлы к сообщениям
    Вы можете скачивать файлы