Доктор Стрэндж

Лицензия

Добыча

Дубляж

Дом дракона

1 сезон

Тор

Дубляж

В эфире

Дубляж

Там, где раки поют

MVO

Властелин колец

1 сезон

Deluxe

pack

Рекомендуем

30

Пиратка

ВАЖНО

ВАЖНО

Ghostwire

Пиратка

jed

RePack

nioh2

RePack

RDR2

RePack

NEED FOR SPEED™ PAYBACK

RePack

скачать торрент

Кинопоиск HD

Острые козырьки 6 сезон

6 сезон

FAR CRY 6

RePack

скачать торрент

Лицензия

скачать торрент

MVO

1

1 сезон

скачать торрент

1 сезон

скачать торрент

Лицензия

  

Мальчишник 2: Из Вегаса в Бангкок / The Hangover Part II (Тодд Филлипс) [2011, Комедия, BDRip-HEVC 1080p, (10 bit)] Дубляж (rus, ukr) [Лицензия] +AVO [Алексей Матвеев]

Мальчишник 2: Из Вегаса в Бангкок через торрент pb.wtf

Размер: 9.93 GB | Добавлен: 3 года назад | Торрент скачан:84 раза
Смотреть онлайн | Скачать   

12-11-2019 08:35 Мальчишник 2: Из Вегаса в Бангкок Скачать торрент  

Мальчишник 2: Из Вегаса в Бангкок / The Hangover Part II
Год выпуска: 2011
Страна: США
Жанр: Комедия
Продолжительность: 01:41:49
Перевод:

Дублированный | Лицензия
Авторский (одноголосый, закадровый) | А.Матвеев

Субтитры: Русские (форсированные, полные), Английские

Режиссер: Тодд Филлипс

rating

В ролях: Брэдли Купер, Эд Хелмс, Зак Галифианакис, Джастин Барта, Кен Жонг, Пол Джаматти, Майк Тайсон, Джефри Тэмбор, Мэйсон Ли, Джеми Чунг

Описание: В продолжении культовой комедии «Мальчишник в Вегасе» четверо друзей: Фил, Стю, Алан и Даг отправляются в экзотический Тайланд на свадьбу Стю. После безумного мальчишника в Лас-Вегасе, они решают не испытывать судьбу во второй раз, а потому в Бангкоке планируют очень спокойное и безопасное празднество. Но как обычно, все идет совсем не по плану. Что происходит в Вегасе, остается в Вегасе. Но то, что происходит в Бангкоке - это просто настоящее безумие.

Качество: BDRip-HEVC 1080p
Формат: MKV

Видео: HEVC/X.265, 1920x800, ~11.4 Mb/s, 10 bit
Аудио#1: AC3, 6 ch, 640 Kbps - Русский, дублированный
Аудио#2: AC3, 6 ch, 640 Kbps - Украинский, дублированный
Аудио#3: AC3, 6 ch, 640 Kbps - Русский, AVO (Матвеев)
Аудио#4: AC3, 6 ch, 640 Kbps - Английский
скриншот  скриншот  скриншот  скриншот  

General
Unique ID : 89515967862512185100285645471821507818 (0x435825F7093DF7FCB2198D13444EACEA)
Complete name : D:DownloadМальчишник 2 - Из Вегаса в Бангкок (2011).mkv
Format : Matroska
Format version : Version 4
File size : 9.93 GiB
Duration : 1 h 41 min
Overall bit rate : 14.0 Mb/s
Movie name : Мальчишник 2 - Из Вегаса в Бангкок / The Hangover - Part II (2011)
Encoded date : UTC 2019-11-11 14:24:55
Writing application : mkvmerge v38.0.0 ('The Silent Type') 64-bit
Writing library : libebml v1.3.9 + libmatroska v1.5.2
Cover : Yes
Attachments : Cover.jpg

Video
ID : 1
Format : HEVC
Format/Info : High Efficiency Video Coding
Format profile : Main [email protected]@High
Codec ID : V_MPEGH/ISO/HEVC
Duration : 1 h 41 min
Bit rate : 11.4 Mb/s
Width : 1 920 pixels
Height : 800 pixels
Display aspect ratio : 2.40:1
Frame rate mode : Constant
Frame rate : 23.976 (24000/1001) FPS
Color space : YUV
Chroma subsampling : 4:2:0
Bit depth : 10 bits
Bits/(Pixel*Frame) : 0.310
Stream size : 8.11 GiB (82%)
Title : The Hangover - Part II
Writing library : x265 3.2+5-354901970679:[Windows][clang 8.0.1][64 bit] 10bit
Encoding settings : cpuid=1111039 / frame-threads=9 / numa-pools=8 / wpp / no-pmode / no-pme / no-psnr / no-ssim / log-level=3 / input-csp=1 / input-res=1920x800 / interlace=0 / total-frames=0 / level-idc=41 / high-tier=1 / uhd-bd=0 / ref=5 / allow-non-conformance / no-repeat-headers / annexb / aud / no-hrd / info / hash=0 / no-temporal-layers / open-gop / min-keyint=23 / keyint=240 / gop-lookahead=0 / bframes=12 / b-adapt=2 / b-pyramid / bframe-bias=0 / rc-lookahead=70 / lookahead-slices=4 / scenecut=40 / radl=0 / no-splice / no-intra-refresh / ctu=32 / min-cu-size=8 / rect / amp / max-tu-size=32 / tu-inter-depth=4 / tu-intra-depth=4 / limit-tu=0 / rdoq-level=2 / dynamic-rd=0.00 / no-ssim-rd / signhide / no-tskip / nr-intra=0 / nr-inter=0 / no-constrained-intra / no-strong-intra-smoothing / max-merge=5 / limit-refs=3 / limit-modes / me=3 / subme=7 / merange=57 / temporal-mvp / no-frame-dup / no-hme / weightp / weightb / no-analyze-src-pics / deblock=-3:-3 / no-sao / no-sao-non-deblock / rd=6 / selective-sao=0 / no-early-skip / no-rskip / no-fast-intra / no-tskip-fast / no-cu-lossless / no-b-intra / no-splitrd-skip / rdpenalty=0 / psy-rd=2.00 / psy-rdoq=1.00 / no-rd-refine / no-lossless / cbqpoffs=0 / crqpoffs=0 / rc=crf / crf=20.0 / qcomp=0.70 / qpstep=4 / stats-write=0 / stats-read=0 / vbv-maxrate=50000 / vbv-bufsize=50000 / vbv-init=0.9 / crf-max=30.0 / crf-min=0.0 / ipratio=1.40 / pbratio=1.30 / aq-mode=3 / aq-strength=1.00 / no-cutree / zone-count=0 / no-strict-cbr / qg-size=32 / no-rc-grain / qpmax=69 / qpmin=0 / no-const-vbv / sar=1 / overscan=0 / videoformat=5 / range=0 / colorprim=2 / transfer=2 / colormatrix=2 / chromaloc=0 / display-window=0 / cll=0,0 / min-luma=0 / max-luma=1023 / log2-max-poc-lsb=8 / vui-timing-info / vui-hrd-info / slices=1 / no-opt-qp-pps / no-opt-ref-list-length-pps / no-multi-pass-opt-rps / scenecut-bias=0.05 / no-opt-cu-delta-qp / aq-motion / no-hdr / no-hdr-opt / no-dhdr10-opt / no-idr-recovery-sei / analysis-reuse-level=5 / scale-factor=0 / refine-intra=0 / refine-inter=0 / refine-mv=1 / refine-ctu-distortion=0 / no-limit-sao / ctu-info=0 / no-lowpass-dct / refine-analysis-type=0 / copy-pic=1 / max-ausize-factor=1.0 / no-dynamic-refine / no-single-sei / no-hevc-aq / no-svt / no-field / qp-adaptation-range=1.00
Language : English
Default : Yes
Forced : No
Color range : Limited

Audio #1
ID : 2
Format : AC-3
Format/Info : Audio Coding 3
Commercial name : Dolby Digital
Codec ID : A_AC3
Duration : 1 h 41 min
Bit rate mode : Constant
Bit rate : 640 kb/s
Channel(s) : 6 channels
Channel layout : L R C LFE Ls Rs
Sampling rate : 48.0 kHz
Frame rate : 31.250 FPS (1536 SPF)
Compression mode : Lossy
Stream size : 466 MiB (5%)
Title : Дубляж
Language : Russian
Service kind : Complete Main
Default : Yes
Forced : No

Audio #2
ID : 3
Format : AC-3
Format/Info : Audio Coding 3
Commercial name : Dolby Digital
Codec ID : A_AC3
Duration : 1 h 41 min
Bit rate mode : Constant
Bit rate : 640 kb/s
Channel(s) : 6 channels
Channel layout : L R C LFE Ls Rs
Sampling rate : 48.0 kHz
Frame rate : 31.250 FPS (1536 SPF)
Compression mode : Lossy
Stream size : 466 MiB (5%)
Title : Дубляж
Language : Ukrainian
Service kind : Complete Main
Default : No
Forced : No

Audio #3
ID : 4
Format : AC-3
Format/Info : Audio Coding 3
Commercial name : Dolby Digital
Codec ID : A_AC3
Duration : 1 h 41 min
Bit rate mode : Constant
Bit rate : 640 kb/s
Channel(s) : 6 channels
Channel layout : L R C LFE Ls Rs
Sampling rate : 48.0 kHz
Frame rate : 31.250 FPS (1536 SPF)
Compression mode : Lossy
Stream size : 466 MiB (5%)
Title : AVO (Матвеев)
Language : Russian
Service kind : Complete Main
Default : No
Forced : No

Audio #4
ID : 5
Format : AC-3
Format/Info : Audio Coding 3
Commercial name : Dolby Digital
Codec ID : A_AC3
Duration : 1 h 41 min
Bit rate mode : Constant
Bit rate : 640 kb/s
Channel(s) : 6 channels
Channel layout : L R C LFE Ls Rs
Sampling rate : 48.0 kHz
Frame rate : 31.250 FPS (1536 SPF)
Compression mode : Lossy
Stream size : 466 MiB (5%)
Title : Original
Language : English
Service kind : Complete Main
Default : No
Forced : No

Text #1
ID : 6
Format : UTF-8
Codec ID : S_TEXT/UTF8
Codec ID/Info : UTF-8 Plain Text
Duration : 1 h 33 min
Bit rate : 0 b/s
Count of elements : 11
Stream size : 266 Bytes (0%)
Title : Forced
Language : Russian
Default : Yes
Forced : Yes

Text #2
ID : 7
Format : UTF-8
Codec ID : S_TEXT/UTF8
Codec ID/Info : UTF-8 Plain Text
Duration : 1 h 36 min
Bit rate : 108 b/s
Count of elements : 1372
Stream size : 76.2 KiB (0%)
Title : Full
Language : Russian
Default : No
Forced : No

Text #3
ID : 8
Format : UTF-8
Codec ID : S_TEXT/UTF8
Codec ID/Info : UTF-8 Plain Text
Duration : 1 h 37 min
Bit rate : 111 b/s
Count of elements : 1513
Stream size : 79.3 KiB (0%)
Title : Full (Дмитрий "Goblin" Пучков)
Language : Russian
Default : No
Forced : No

Text #4
ID : 9
Format : UTF-8
Codec ID : S_TEXT/UTF8
Codec ID/Info : UTF-8 Plain Text
Duration : 1 h 38 min
Bit rate : 106 b/s
Count of elements : 1373
Stream size : 76.3 KiB (0%)
Title : Full (Voronine)
Language : Russian
Default : No
Forced : No

Text #5
ID : 10
Format : UTF-8
Codec ID : S_TEXT/UTF8
Codec ID/Info : UTF-8 Plain Text
Duration : 1 h 40 min
Bit rate : 75 b/s
Count of elements : 1675
Stream size : 55.5 KiB (0%)
Title : Full
Language : English
Default : No
Forced : No

Menu
00:00:00.000 : :00:00:00.000
00:09:00.081 : :00:09:00.081
00:17:02.813 : :00:17:02.813
00:24:20.542 : :00:24:20.542
00:34:00.413 : :00:34:00.413
00:44:21.993 : :00:44:21.993
00:54:58.545 : :00:54:58.545
01:04:56.267 : :01:04:56.267
01:13:42.918 : :01:13:42.918
01:23:35.302 : :01:23:35.302
01:33:01.576 : :01:33:01.576
01:37:07.113 : :01:37:07.113




Скачать Мальчишник 2: Из Вегаса в Бангкок через торрент http://i47.fastpic.ru/big/2013/0610/d4/51631ae66623675616fad0855423efd4.jpg Скачать, смотреть онлайн Мальчишник 2: Из Вегаса в Бангкок бесплантно в хорошем качестве Описание: В продолжении культовой комедии «Мальчишник в Вегасе» четверо друзей: Фил, Стю, Алан и Даг отправляются в экзотический Тайланд на ... 10 10 6
Info! Золотая раздача, скачанное не засчитывается.
Торрент: Зарегистрирован [2019-11-12 08:35] · скачан: 84 раз
Статус: √ проверено
Размер: 9.93 GB
Как cкачать? Как скачать Мальчишник 2: Из Вегаса в Бангкок через торрент | UTorrent

% Раздел Тема Автор DL S | L
Ultra HD (UHD: 2K, 4K, 8K) [ 22.12 GB ] Мальчишник 2: Из Вегаса в Бангкок / The Hangover Part II | DUB | 2160p bober100 Скачать
1 | 0
Фильмы [HD 720p, 1080p] (Хороший звук DUB, MVO) [ 6.66 GB ] Мальчишник 2: Из Вегаса в Бангкок / The Hangover Part II | | 720p diletant Скачать
1 | 0
Фильмы с авторской озвучкой [ 1.45 GB ] Похмелье 2 / Мальчишник 2: Из Вегаса в Бангкок / The Hangover Part II | AVO | HDRip killermax2013 Скачать
1 | 0
Фильмы (Blu-ray, BD-Remux, HDDVD) [ 15.1 GB ] Мальчишник 2: Из Вегаса в Бангкок / The Hangover Part II | Дубляж + Оригинал | Мальчишник 2: Из Вегаса в Бангкок / The Hangover Part II (Тодд Филлипс Бумер Скачать
1 | 0
Фильмы 2011 [ 1.37 GB ] Мальчишник 2: Из Вегаса в Бангкок / The Hangover Part II | | BDRip лицензия coc900 Скачать
1 | 0
Фильмы 2011 [ 2.18 GB ] Мальчишник 2: Из Вегаса в Бангкок / The Hangover Part II | | BDRip-AVC RaSSeLBeatZ Скачать
1 | 0
Фильмы 2011 [ 2.05 GB ] Мальчишник 2: Из Вегаса в Бангкок / The Hangover Part II | | HDRip, лицензия KRAcos Скачать
1 | 0

28-11-2019 20:33  


Отключить вcю реклaмy на сайте, в т.ч. и в плеере онлайн просмотра!

    Дорогой пользователь! Огромная просьба, поблагодарите релизера, оцените раздачу и оставьте свои комментарий, если Вы скачали Мальчишник 2: Из Вегаса в Бангкок через торрент бесплатно!!
    Комментировать посты могут только пользователи прошедшие не сложную регистрацию
    Показать сообщения:    


    Мальчишник 2: Из Вегаса в Бангкок через торрент
    Скачать бесплатно Мальчишник 2: Из Вегаса в Бангкок
    Мальчишник 2: Из Вегаса в Бангкок скачать торрент
    Мальчишник 2: Из Вегаса в Бангкок смотреть онлайн
    Cкачать фильм Мальчишник 2: Из Вегаса в Бангкок бесплатно
    Мальчишник 2: Из Вегаса в Бангкок скачать торрент в хорошем качестве
    Мальчишник 2: Из Вегаса в Бангкок смотреть онлайн бесплатно в хорошем качестве
    Вы не можете начинать темы
    Вы не можете отвечать на сообщения
    Вы не можете редактировать свои сообщения
    Вы не можете удалять свои сообщения
    Вы не можете голосовать в опросах
    Вы не можете прикреплять файлы к сообщениям
    Вы можете скачивать файлы
    Мальчишник 2: Из Вегаса в Бангкок / The Hangover Part II [2011, Комедия, BDRip-HEVC 1080p, ] Дубляж [Лицензия] +AVO [Алексей Матвеев] смотреть онлайн, скачать торрент picoco.icu