новый адрес
Ссылка на приватное зеркало всего за 1$. Внимание количество ограничено!!!

iTunes

1+1

iTunes

мы

WEB-DL

1

iTunes

Чернобыль

iTunes

Ральф против интернета

Лицензия

ПШазам

Лицензия

Оно 2

Лицензия

30
pack

Вам бонус

ВАЖНО

!!Акция!!

Alien_RageХит недели

RePack

Resident Evil 21

ИГРА 18+

pack

RePack

jed

!!Акция!!

Alien_Rage

RePack

fifa19

RePack

Assassins Creed: Odyssey

RePack

NEED FOR SPEED™ PAYBACK

3 сезон

9 сезон

Бесстыжие 9 сезон

Все сериалы

все сериалы на PB.wtf

RePack

FAR CRY 5
Ребята, катастрофически не хватает 1900р. для оплаты серверов за Октябрь (всвязи с блокировками трафик упал в 3 раза), 1-2р., выручайте.
  

Молчание / The Silence (Джон Р. Леонетти) [2019, ужасы, фантастика, триллер, драма, HDRip, Дубляж "SDI Media"] pb.wtf

Молчание через торрент pb.wtf

Раздают: 3 [ 0 KB/s ]
Размер: 707 MB | Добавлен: 26 д. назад | Торрент скачан:47 раз
Скачать  

12-11-2019 18:31 Молчание Скачать торрент  

Молчание / The Silence
Год выпуска: 2019
Страна: Германия / Constantin Film, EMJAG Productions
Жанр: ужасы, фантастика, триллер, драма
Продолжительность: 01:30:49
Перевод: Дубляж (SDI Media)
Субтитры: Русские форсированные - вшитые

Режиссер: Джон Р. Леонетти

rating

В ролях: Кирнан Шипка, Стэнли Туччи, Миранда Отто, Джон Корбетт, Сара Эбботт, Кейт Корбетт, Кайл Харрисон, Брейткопф, Демпси Брайк, Билли Маклеллан, Ханна Гордон, Каллум Шоникер, Тейлор Лав, Чезаре Скарпоне, Хелен Стивенс, Джон Уинстон, Тамара Сазерленд, Райан Тернер, Крис Уайтби, Алекс Хац, Джино Раймондо

Описание: Спелеологи вскрыли древнюю пещеру в Пенсильвании и выпустили на свободу агрессивных кровожадных существ, больше всего похожих на летучих мышей. Твари слепы, ориентируются только на звук, быстро перемещаются на кожистых крыльях и довольно шустро размножаются, поэтому вскоре распространяются по Северной Америке, неся хаос, смерть и уничтожая цивилизацию.

Качество: HDRip
Формат: AVI
Видео кодек: DivX
Аудио кодек: MP3
Видео: 640x272 (2.35:1), 23.976 fps, DivX Codec 4.x ~950 kbps avg, 0.23 bit/pixel
Аудио: 48 kHz, MPEG Layer 3, 2 ch, ~128.00 kbps avg
скриншот   скриншот   скриншот   скриншот  

Общее
Полное имя : F:\ФИЛЬМЫ\Молчание.2019.D.HDRip.avi
Формат : AVI
Формат/Информация : Audio Video Interleave
Размер файла : 707 Мбайт
Продолжительность : 1 ч. 30 м.
Общий поток : 1088 Кбит/сек
Программа кодирования : VirtualDubMod 1.5.10.3 | www.virtualdub-fr.org || (build 2550/release)
Библиотека кодирования : VirtualDubMod build 2550/release

Видео
Идентификатор : 0
Формат : MPEG-4 Visual
Профиль формата : Advanced Simple@L5
Настройки формата : BVOP3 / GMC3 / QPel
Параметр BVOP формата : 3
Параметр QPel формата : Да
Параметр GMC формата : 3 точки перехода
Параметр матрицы формата : Default (MPEG)
Идентификатор кодека : DIVX
Идентификатор кодека/Информация : Project Mayo
Идентификатор кодека/Подсказка : DivX 4
Продолжительность : 1 ч. 30 м.
Битрейт : 951 Кбит/сек
Ширина : 640 пикселей
Высота : 272 пикселя
Соотношение сторон : 2,35:1
Частота кадров : 23,976 (24000/1001) кадра/сек
Цветовое пространство : YUV
Субдискретизация насыщенности : 4:2:0
Битовая глубина : 8 бит
Тип развёртки : Прогрессивная
Метод сжатия : С потерями
Бит/(Пиксели*Кадры) : 0.228
Размер потока : 618 Мбайт (87%)
Библиотека кодирования : XviD 1.2.1 (UTC 2008-12-04)

Аудио
Идентификатор : 1
Формат : MPEG Audio
Версия формата : Version 1
Профиль формата : Layer 3
Настройки формата : Joint stereo / MS Stereo
Идентификатор кодека : 55
Идентификатор кодека/Подсказка : MP3
Продолжительность : 1 ч. 30 м.
Вид битрейта : Постоянный
Битрейт : 128 Кбит/сек
Каналы : 2 канала
Частота : 48,0 КГц
Частота кадров : 41,667 кадра/сек (1152 SPF)
Метод сжатия : С потерями
Размер потока : 83,1 Мбайт (12%)
Выравнивание : Соединение по промежуткам
Продолжительность промежутка : 42 мс. (1,00 видеокадр)
Время предзагрузки промежутка : 504 мс.
Библиотека кодирования : LAME3.99r
Настройки программы : -m j -V 4 -q 2 -lowpass 17 -b 128

pb.wtf



Скачать Молчание через торрент http://pic1.kartinco.top/images/12/zmg65.jpg Скачать фильм Молчание через торрент бесплантно в хорошем качестве Описание: Спелеологи вскрыли древнюю пещеру в Пенсильвании и выпустили на свободу агрессивных кровожадных существ, больше всего похожих на ... 10 10 2
Торрент: Зарегистрирован [2019-11-12 18:31] · скачан: 47 раз
Статус: √ проверено
Размер: 707 MB
Как cкачать? Как скачать Молчание через торрент | qTorrent

% Раздел Тема Автор DL S | L
Фильмы [HD 720p, 1080p] (Хороший звук DUB, MVO) [ 7.36 GB ] Молчание / The Silence [2019 BDRip 1080p] DUB [SDI Media] bober100 Скачать
12 | 0
Фильмы 2019 [DVDrip, WEB-DLRip, HDrip] (DUB, MVO) [ 1.46 GB ] Молчание / The Silence [2019 BDRip] - [SDI Media] Twi7ter Скачать
25 | 2
Фильмы 2019 [DVDrip, WEB-DLRip, HDrip] (DUB, MVO) [ 1.44 GB ] Молчание / The Silence [2019 BDRip-AVC] DUB [SDI Media] bober100 Скачать
7 | 0
Фильмы 2019 [DVDrip, WEB-DLRip, HDrip] (DUB, MVO) [ 745 MB ] Молчание / The Silence [2019 BDRip-AVC] DUB [SDI Media] - OlLanDGroup Skandar2019 Скачать
5 | 0
Фильмы 2019 [DVDrip, WEB-DLRip, HDrip] (DUB, MVO) [ 1.46 GB ] Молчание / The Silence [2019 BDRip] killermax2013 Скачать
9 | 0
T Фильмы (мультфильмы) cо спонсором показа (Новинки AVI/MKV) [ 4.56 GB ] Цена молчания / The Price for Silence [2018 WEB-DL 720p] MVO ["Синема УС"] bober100 Скачать
1 | 0
T Фильмы (мультфильмы) cо спонсором показа (Новинки AVI/MKV) [ 1.46 GB ] Цена молчания / The Price for Silence [2018 WEB-DLRip] MVO ["Синема УС"] bober100 Скачать
1 | 0

28-11-2019 20:33  

Отключить всю рекламу на сайте

13-11-2019 02:47 Молчание Скачать торрент  

мериканцев постоянно кто-то пытается истребить. уверен, если фильм посмотреть пятнадцать раз можно будет с высокой долей вероятности обнаружить "русский след") pb.wtf



    Дорогой пользователь! Огромная просьба, поблагодарите релизера, оцените раздачу и оставьте свои комментарий, если Вы скачали Молчание через торрент бесплатно! Внесите свою лепту в развитие PiratBit!
    Комментировать посты могут только пользователи прошедшие не сложную регистрацию
    Показать сообщения:    

    Молчание через торрент
    Скачать бесплатно Молчание
    Молчание скачать торрент
    Молчание смотреть онлайн
    Cкачать фильм Молчание бесплатно
    Молчание скачать торрент в хорошем качестве
    Молчание смотреть онлайн бесплатно в хорошем качестве


    Вы не можете начинать темы
    Вы не можете отвечать на сообщения
    Вы не можете редактировать свои сообщения
    Вы не можете удалять свои сообщения
    Вы не можете голосовать в опросах
    Вы не можете прикреплять файлы к сообщениям
    Вы можете скачивать файлы