Ссылка на приватное зеркало нашего сайта всего за 1$. Внимание количество ограничено!!!

2 сезон

iTunes

1 сезон

1

2 сезон

2 сезон

iTunes

1 сезон

RePack

30

Новинка

ВАЖНО

ИГРА 18+

pack

RePack

MK11
pack

Забери бонус

RePack

jed

!!Акция!!

Alien_Rage

RePack

fifa19

RePack

Assassins Creed: Odyssey

RePack

NEED FOR SPEED™ PAYBACK

4 сезон

9 сезон

Бесстыжие 9 сезон

Все сериалы

все сериалы на PB.wtf

RePack

FAR CRY 5
  

Болевой порог (Андрей Симонов) [2019, триллер, приключения, драма, WEB-DLRip-AVC] [iTunes] - ExKinoRay pb.wtf

Болевой порог через торрент pb.wtf

Раздают: 10 [ 0 KB/s ]
Размер: 1.7 GB | Добавлен: 1 год назад | Торрент скачан:450 раз
Скачать  

12-11-2019 21:37 Болевой порог Скачать торрент  

Информация о фильме
Название: Болевой порог
Год выхода: 2019
Жанр: Триллер, приключения, драма
Режиссер: Андрей Симонов
В ролях: Арина Постникова, Роман Курцын, Кирилл Комаров, Наталья Скоморохова, Григорий Чабан, Александр Голубков, Олег Фомин, Евгений Атарик, Евгений Мундум, Алексей Дерябкин, Вилен Бабичев

Описание: В результате скандального ДТП четверо москвичей - двое друзей и их девушки - вынуждены уехать из столицы в Горный Алтай. Они хотят расслабиться и отдохнуть, но вновь попадают в экстремальную ситуацию, где каждый проявит свой характер и столкнется с собственными демонами. На кону - дружба, любовь и сама возможность остаться в живых.



Страна: Россия
Студия: Лук-фильм, Р Медиа
Продолжительность: 01:21:05
Перевод: Не требуется | iTunes

Формат: MKV
Качество: WEB-DLRip-AVC
Видео: MPEG-4 AVC, 1024x436 (2.35:1), 25.000 fps, 2609 Kbps, 0.234 bit/pixel
Звук: 48 kHz, AC3, 5.1, 384 Kbps
General
Unique ID : 183534242170840588563111791620399624053 (0x8A1368C6AFE3A44D99EB305E3F34EF75)
Complete name : F:\Bolevoy.porog.2019.O.WEB-DL.AVC.ExKinoRay.mkv
Format : Matroska
Format version : Version 2
File size : 1.70 GiB
Duration : 1 h 21 min
Overall bit rate : 2 994 kb/s
Movie name : Болевой порог 2019 from ExKinoRay
Encoded date : UTC 2019-11-12 21:11:52
Writing application : mkvmerge v5.6.0 ('Kenya Kane') built on May 27 2012 16:44:04
Writing library : libebml v1.2.3 + libmatroska v1.3.0

Video
ID : 1
Format : AVC
Format/Info : Advanced Video Codec
Format profile : High@L4.1
Format settings, CABAC : Yes
Format settings, ReFrames : 11 frames
Codec ID : V_MPEG4/ISO/AVC
Duration : 1 h 21 min
Bit rate : 2 609 kb/s
Width : 1 024 pixels
Height : 436 pixels
Display aspect ratio : 2.35:1
Frame rate mode : Constant
Frame rate : 25.000 FPS
Color space : YUV
Chroma subsampling : 4:2:0
Bit depth : 8 bits
Scan type : Progressive
Bits/(Pixel*Frame) : 0.234
Stream size : 1.44 GiB (85%)
Title : Enigma
Writing library : x264 core 152 r2851 ba24899
Encoding settings : cabac=1 / ref=11 / deblock=1:-2:-2 / analyse=0x3:0x113 / me=umh / subme=10 / psy=1 / psy_rd=1.04:0.05 / mixed_ref=1 / me_range=32 / chroma_me=1 / trellis=2 / 8x8dct=1 / cqm=0 / deadzone=21,11 / fast_pskip=0 / chroma_qp_offset=-3 / threads=12 / lookahead_threads=2 / sliced_threads=0 / nr=0 / decimate=0 / interlaced=0 / bluray_compat=0 / constrained_intra=0 / bframes=9 / b_pyramid=2 / b_adapt=2 / b_bias=0 / direct=3 / weightb=1 / open_gop=0 / weightp=2 / keyint=250 / keyint_min=25 / scenecut=40 / intra_refresh=0 / rc=2pass / mbtree=0 / bitrate=2609 / ratetol=1.0 / qcomp=0.60 / qpmin=0 / qpmax=51 / qpstep=4 / cplxblur=20.0 / qblur=0.5 / ip_ratio=1.40 / pb_ratio=1.30 / aq=1:1.00
Language : English
Default : Yes
Forced : No
Color range : Limited
Color primaries : BT.709
Transfer characteristics : BT.709
Matrix coefficients : BT.709

Audio
ID : 2
Format : AC-3
Format/Info : Audio Coding 3
Mode extension : CM (complete main)
Format settings, Endianness : Big
Codec ID : A_AC3
Duration : 1 h 21 min
Bit rate mode : Constant
Bit rate : 384 kb/s
Channel(s) : 6 channels
Channel positions : Front: L C R, Side: L R, LFE
Sampling rate : 48.0 kHz
Frame rate : 31.250 FPS (1536 spf)
Compression mode : Lossy
Stream size : 223 MiB (13%)
Language : Russian
Default : Yes
Forced : No

Menu
00:00:00.000 : en:Глава 1
00:08:01.440 : en:Глава 2
00:16:32.680 : en:Глава 3
00:24:46.640 : en:Глава 4
00:33:05.880 : en:Глава 5
00:41:10.920 : en:Глава 6
00:49:39.120 : en:Глава 7
00:58:02.760 : en:Глава 8
01:06:11.480 : en:Глава 9
01:14:19.600 : en:Глава 10


Релиз от:

Автор релиза: pb.wtf



Скачать Болевой порог через торрент https://i1.imageban.ru/out/2019/11/12/abe8ea57d4c8a663150edcc51dd856a0.png Скачать фильм Болевой порог через торрент бесплантно в хорошем качестве Описание: В результате скандального ДТП четверо москвичей - двое друзей и их девушки - вынуждены уехать из столицы в Горный Алтай. Они ... 9.4 10 14
Info! Золотая раздача, скачанное не засчитывается.
Торрент: Зарегистрирован [2019-11-12 21:37] · скачан: 450 раз
Статус: √ проверено
Размер: 1.7 GB
Как cкачать? Как скачать Болевой порог через торрент | qTorrent

28-11-2019 20:33  

Отключить всю рекламу на сайте

    Дорогой пользователь! Огромная просьба, поблагодарите релизера, оцените раздачу и оставьте свои комментарий, если Вы скачали Болевой порог через торрент бесплатно! Внесите свою лепту в развитие PiratBit!
    Комментировать посты могут только пользователи прошедшие не сложную регистрацию
    Показать сообщения:    

    Болевой порог через торрент
    Скачать бесплатно Болевой порог
    Болевой порог скачать торрент
    Болевой порог смотреть онлайн
    Cкачать фильм Болевой порог бесплатно
    Болевой порог скачать торрент в хорошем качестве
    Болевой порог смотреть онлайн бесплатно в хорошем качестве


    Вы не можете начинать темы
    Вы не можете отвечать на сообщения
    Вы не можете редактировать свои сообщения
    Вы не можете удалять свои сообщения
    Вы не можете голосовать в опросах
    Вы не можете прикреплять файлы к сообщениям
    Вы можете скачивать файлы