Ссылка на приватное зеркало нашего сайта всего за 1$. Внимание количество ограничено!!!

2 сезон

iTunes

1 сезон

1

2 сезон

2 сезон

iTunes

1 сезон

RePack

30

Новинка

ВАЖНО

ИГРА 18+

pack

RePack

MK11
pack

Забери бонус

RePack

jed

!!Акция!!

Alien_Rage

RePack

fifa19

RePack

Assassins Creed: Odyssey

RePack

NEED FOR SPEED™ PAYBACK

4 сезон

9 сезон

Бесстыжие 9 сезон

Все сериалы

все сериалы на PB.wtf

RePack

FAR CRY 5
  

Игра с огнем / Жар / Burn (Майк Ган) [2019, Триллер, BD Remux 1080p] DUB [iTunes] pb.wtf

Игра с огнем через торрент pb.wtf

Размер: 19.31 GB | Добавлен: 1 год назад | Торрент скачан:5 раз
Скачать  

13-11-2019 12:52 Игра с огнем Скачать торрент  

Игра с огнем / Жар / Burn
Год выпуска: 2019
Страна: США
Жанр: Триллер
Продолжительность: 01:28:21
Перевод: Дублированный | iTunes
Субтитры: Русские (Full [Enigma]), английские

Режиссер: Майк Ган

rating

В ролях: Тильда Кобэм-Херви, Джош Хатчерсон, Сьюки Уотерхаус, Гарри Шам мл., Шайло Фернандес, Джим Девоти, Джон Д. Хикман, Стив Гарфанти, Винтер-Ли Холланд, Уэйн Пайл, Кит Леонард, Анхель Валле мл

Описание: История развернется вокруг работницы заправки Мелинды, которая страдает от одиночества и завидует своей более успешной коллеге Шейле. Когда мелкий преступник Билли врывается на заправку в надежде украсть немного наличных, Мелинда видит в этом отличный шанс избавиться от опостылевшей напарницы.

Качество: BD Remux 1080p
Формат: MKV

Видео: MPEG-4 AVC, 1920x1080, 27.2 Mbit/s, 23.976 fps
Аудио#1: 48 kHz, AC3, 5.1, 384 Kbps | iTunes | RUS |
Аудио#2: 48 kHz, TrueHD, 5.1, 3003 Kbps | Оригинал | ENG |
Аудио#3: 48 kHz, AC3, 5.1, 640 Kbps | Оригинал | ENG |
скриншот  скриншот  скриншот  скриншот  скриншот  

General
Unique ID : 33727605145884063201373788976925490449 (0x195FB352056707197EA4C1F6E97DBD11)
Complete name : D:Video111Burn.2019.BDREMUX.1080p.seleZen.mkv
Format : Matroska
Format version : Version 4
File size : 19.3 GiB
Duration : 1 h 28 min
Overall bit rate mode : Variable
Overall bit rate : 31.3 Mb/s
Movie name : Burn 2019 from селезень
Encoded date : UTC 2019-11-13 12:36:14
Writing application : mkvmerge v40.0.0 ('Old Town Road + Pony') 64-bit
Writing library : libebml v1.3.9 + libmatroska v1.5.2

Video
ID : 1
Format : AVC
Format/Info : Advanced Video Codec
Format profile : High@L4.1
Format settings : CABAC / 4 Ref Frames
Format settings, CABAC : Yes
Format settings, Reference : 4 frames
Codec ID : V_MPEG4/ISO/AVC
Duration : 1 h 28 min
Bit rate mode : Variable
Bit rate : 27.2 Mb/s
Maximum bit rate : 35.0 Mb/s
Width : 1 920 pixels
Height : 1 080 pixels
Display aspect ratio : 16:9
Frame rate mode : Constant
Frame rate : 23.976 (24000/1001) FPS
Standard : NTSC
Color space : YUV
Chroma subsampling : 4:2:0
Bit depth : 8 bits
Scan type : Progressive
Bits/(Pixel*Frame) : 0.547
Stream size : 16.8 GiB (87%)
Language : English
Default : Yes
Forced : No
Color range : Limited
Color primaries : BT.709
Transfer characteristics : BT.709
Matrix coefficients : BT.709

Audio #1
ID : 2
Format : AC-3
Format/Info : Audio Coding 3
Commercial name : Dolby Digital
Codec ID : A_AC3
Duration : 1 h 28 min
Bit rate mode : Constant
Bit rate : 384 kb/s
Channel(s) : 6 channels
Channel layout : L R C LFE Ls Rs
Sampling rate : 48.0 kHz
Frame rate : 31.250 FPS (1536 SPF)
Bit depth : 16 bits
Compression mode : Lossy
Stream size : 243 MiB (1%)
Title : iTunes
Language : Russian
Service kind : Complete Main
Default : Yes
Forced : Yes

Audio #2
ID : 3
Format : MLP FBA
Format/Info : Meridian Lossless Packing FBA
Commercial name : Dolby TrueHD
Codec ID : A_TRUEHD
Duration : 1 h 28 min
Bit rate mode : Variable
Bit rate : 3 003 kb/s
Maximum bit rate : 4 884 kb/s
Channel(s) : 6 channels
Channel layout : L R C LFE Ls Rs
Sampling rate : 48.0 kHz
Frame rate : 1 200.000 FPS (40 SPF)
Compression mode : Lossless
Stream size : 1.85 GiB (10%)
Title : Original
Language : English
Default : No
Forced : No

Audio #3
ID : 4
Format : AC-3
Format/Info : Audio Coding 3
Commercial name : Dolby Digital
Codec ID : A_AC3
Duration : 1 h 28 min
Bit rate mode : Constant
Bit rate : 640 kb/s
Channel(s) : 6 channels
Channel layout : L R C LFE Ls Rs
Sampling rate : 48.0 kHz
Frame rate : 31.250 FPS (1536 SPF)
Bit depth : 16 bits
Compression mode : Lossy
Stream size : 404 MiB (2%)
Language : English
Service kind : Complete Main
Default : No
Forced : No

Text #1
ID : 5
Format : UTF-8
Codec ID : S_TEXT/UTF8
Codec ID/Info : UTF-8 Plain Text
Duration : 1 h 20 min
Bit rate : 86 b/s
Count of elements : 1099
Stream size : 50.9 KiB (0%)
Title : Full [Enigma]
Language : Russian
Default : No
Forced : No

Text #2
ID : 6
Format : UTF-8
Codec ID : S_TEXT/UTF8
Codec ID/Info : UTF-8 Plain Text
Duration : 1 h 20 min
Bit rate : 54 b/s
Count of elements : 1107
Stream size : 32.1 KiB (0%)
Title : Full
Language : English
Default : No
Forced : No

Text #3
ID : 7
Format : UTF-8
Codec ID : S_TEXT/UTF8
Codec ID/Info : UTF-8 Plain Text
Duration : 1 h 25 min
Bit rate : 58 b/s
Count of elements : 1321
Stream size : 36.7 KiB (0%)
Title : SDH
Language : English
Default : No
Forced : No

Menu
00:00:00.000 : en:Глава 01
00:11:26.603 : en:Глава 02
00:24:30.177 : en:Глава 03
00:37:16.609 : en:Глава 04
00:52:20.137 : en:Глава 05
01:05:51.239 : en:Глава 06
01:18:34.543 : en:Глава 07
01:21:29.093 : en:Глава 08

pb.wtf



Скачать Игра с огнем через торрент https://b.radikal.ru/b13/1911/dd/51834049d8f5.jpg Скачать фильм Игра с огнем через торрент бесплантно в хорошем качестве Описание: История развернется вокруг работницы заправки Мелинды, которая страдает от одиночества и завидует своей более успешной коллеге ... 10 10 4
Торрент: Зарегистрирован [2019-11-13 12:52] · скачан: 5 раз
Статус: √ проверено
Размер: 19.31 GB
Как cкачать? Как скачать Игра с огнем через торрент | qTorrent

% Раздел Тема Автор DL S | L
Фильмы 2019-2020 [DVDrip, WEB-DLRip, HDrip] (DUB, MVO) [ 1.42 GB ] Игра с огнем / Жар / Burn [2019 BDRip] - Twi7ter Скачать
4 | 0
Фильмы [HD 720p, 1080p] (Хороший звук DUB, MVO) [ 7.73 GB ] Игра с огнем / Жар / Burn [2019 BDRip 1080p] bober100 Скачать
1 | 0
Фильмы 2019-2020 [DVDrip, WEB-DLRip, HDrip] (DUB, MVO) [ 1.42 GB ] Игра с огнем / Жар / Burn [2019 BDRip] bober100 Скачать
1 | 0
Фильмы (WEB-DL 720p, 1080p) [ 5.86 GB ] Игра с огнем / Жар / Burn [2019 WEB-DL 1080p] bober100 Скачать
1 | 0

28-11-2019 20:33  

Отключить всю рекламу на сайте

    Дорогой пользователь! Огромная просьба, поблагодарите релизера, оцените раздачу и оставьте свои комментарий, если Вы скачали Игра с огнем через торрент бесплатно! Внесите свою лепту в развитие PiratBit!
    Комментировать посты могут только пользователи прошедшие не сложную регистрацию
    Показать сообщения:    

    Игра с огнем через торрент
    Скачать бесплатно Игра с огнем
    Игра с огнем скачать торрент
    Игра с огнем смотреть онлайн
    Cкачать фильм Игра с огнем бесплатно
    Игра с огнем скачать торрент в хорошем качестве
    Игра с огнем смотреть онлайн бесплатно в хорошем качестве


    Вы не можете начинать темы
    Вы не можете отвечать на сообщения
    Вы не можете редактировать свои сообщения
    Вы не можете удалять свои сообщения
    Вы не можете голосовать в опросах
    Вы не можете прикреплять файлы к сообщениям
    Вы можете скачивать файлы