2 сезон

iTunes

MVO

1

2 сезон

iTunes

iTunes

1 сезон

RePack

30

Новинка

ВАЖНО

ИГРА 18+

pack

RePack

MK11
pack

Легкие деньги

RePack

jed

RePack

fifa19

RePack

RDR2

RePack

NEED FOR SPEED™ PAYBACK

4 сезон

9 сезон

Бесстыжие 9 сезон

Все сериалы

все сериалы на PB.wtf

RePack

FAR CRY 5

Anonymous, доброй ночи, мы не успеваем собрать деньги на оплату серверов за декабрь и январь, помогите нам пожалуйста в это трудное время. В качестве благодарности мы отключим Вам всю рекламу на сайте (укажите свой ник в строку Ваше имя)!

×
  
Magnet ссылка

Джек Райан / Jack Ryan / Сезон: 2 / Серия: 1-8 из 8 (Патрисия Ригген) [2019, боевик, триллер, драма, WEB-DL 1080p] MVO [Jaskier] pb.wtf

Джек Райан через торрент pb.wtf

Размер: 23.85 GB | Добавлен: 1 год 2 мес. назад | Торрент скачан:10 раз
Скачать  

13-11-2019 14:09 Джек Райан Скачать торрент  

Джек Райан / Jack Ryan
«***»
Производство: США
Год выпуска: 2019
Жанр: боевик, триллер, драма
Продолжительность: ~ 00:58:00 серия
Премьера (мир): 31 августа 2018
Перевод: Профессиональный (многоголосый закадровый) | Jaskier - без цензуры
Субтитры: отсутствуют

Режиссёр: Патрисия Ригген, Дэниэл Сакхайм, Эндрю Бернштейн

В ролях: Джон Красински (Джек Райан), Франциско Дэнис, Хорди Молья, Нуми Рапас (Harriet 'Harry' Baumann), Кристина Уманья, Майкл Келли, Джон Хугенэккер (Матис), Уэнделл Пирс (Джеймс Грир), Дэвид Норона, Сьюзан Миснер

Описание:
Аналитик ЦРУ Джек Райан натыкается на подозрительную серию банковских переводов и начинает собственное расследование. Оно заставляет героя оставить безопасную офисную работу и включиться в смертельную игру кошки-мышки по всей Европе и на Ближнем Востоке с лидером террористов, готовящим массированную атаку на США и её союзников.



Качество: WEB-DL 1080p
Формат: | X264 | MKV |

Видео: ~ 8500 kbps, 1920x1080, 23.976 fps
Аудио#1 Rus: AC3, 6 ch, 384 kbps
Аудио#2 Eng: AC3, 6 ch, 384 kbps
скриншот  скриншот  скриншот  

Общее
Уникальный идентификатор : 248275707997454338382670491581058404428 (0xBAC8297C158AE95DB88CEBA9E658504C)
Полное имя : C:\Jack Ryan. Season 2 (WEB-DL l 1080p l Jaskier)\Tom.Clancys.Jack.Ryan.S02E01.1080p.WEB-DL.DD5.1.H.264-Jaskier.mkv
Формат : Matroska
Версия формата : Version 2
Размер файла : 3,85 Гбайт
Продолжительность : 58 м. 15 с.
Режим общего битрейта : Постоянный
Общий поток : 9466 Кбит/сек
Дата кодирования : UTC 2019-11-13 11:43:06
Программа кодирования : mkvmerge v7.8.0 ('River Man') 32bit built on Apr 3 2015 12:11:22
Библиотека кодирования : libebml v1.3.1 + libmatroska v1.4.2

Видео
Идентификатор : 1
Формат : AVC
Формат/Информация : Advanced Video Codec
Профиль формата : High@L4
Настройки формата : CABAC / 4 Ref Frames
Параметр CABAC формата : Да
Параметр RefFrames формата : 4 кадра
Идентификатор кодека : V_MPEG4/ISO/AVC
Продолжительность : 58 м. 15 с.
Вид битрейта : Постоянный
Битрейт : 8510 Кбит/сек
Номинальный битрейт : 10000 Кбит/сек
Ширина : 1920 пикселей
Высота : 1080 пикселей
Соотношение сторон : 16:9
Режим частоты кадров : Постоянный
Частота кадров : 23,976 (24000/1001) кадра/сек
Цветовое пространство : YUV
Субдискретизация насыщенности : 4:2:0
Битовая глубина : 8 бит
Тип развёртки : Прогрессивная
Бит/(Пиксели*Кадры) : 0.171
Размер потока : 3,46 Гбайт (90%)
Язык : English
Default : Да
Forced : Нет
Цветовой диапазон : Limited
Основные цвета : BT.709
Характеристики трансфера : BT.709
Коэффициенты матрицы : BT.709

Аудио #1
Идентификатор : 2
Формат : AC-3
Формат/Информация : Audio Coding 3
Коммерческое название : Dolby Digital
Идентификатор кодека : A_AC3
Продолжительность : 58 м. 15 с.
Вид битрейта : Постоянный
Битрейт : 384 Кбит/сек
Каналы : 6 каналов
ChannelLayout : L R C LFE Ls Rs
Частота : 48,0 КГц
Частота кадров : 31,250 кадров/сек (1536 SPF)
Битовая глубина : 16 бит
Метод сжатия : С потерями
Размер потока : 160 Мбайт (4%)
Заголовок : Jaskier
Язык : Russian
ServiceKind/String : Complete Main
Default : Да
Forced : Нет

Аудио #2
Идентификатор : 3
Формат : AC-3
Формат/Информация : Audio Coding 3
Коммерческое название : Dolby Digital
Идентификатор кодека : A_AC3
Продолжительность : 58 м. 15 с.
Вид битрейта : Постоянный
Битрейт : 384 Кбит/сек
Каналы : 6 каналов
ChannelLayout : L R C LFE Ls Rs
Частота : 48,0 КГц
Частота кадров : 31,250 кадров/сек (1536 SPF)
Битовая глубина : 16 бит
Метод сжатия : С потерями
Размер потока : 160 Мбайт (4%)
Язык : English
ServiceKind/String : Complete Main
Default : Нет
Forced : Нет

pb.wtf



Скачать Джек Райан через торрент https://img16.lostpic.net/2019/11/13/44ba22a270c68026ae98426796a92249.png Скачать фильм Джек Райан через торрент бесплантно в хорошем качестве Описание:Аналитик ЦРУ Джек Райан натыкается на подозрительную серию банковских переводов и начинает собственное расследование. Оно ... 10 10 3
Торрент: Зарегистрирован [2019-11-13 14:09] · скачан: 10 раз
Статус: √ проверено
Размер: 23.85 GB
Как cкачать? Как скачать Джек Райан через торрент | UTorrent

% Раздел Тема Автор DL S | L
Зарубежные сериалы [ 12.74 GB ] Джек Райан / Jack Ryan / Сезон: 2 / Серии: 1-8 из 8 [2019 WEBRip 720p] [DVO] killermax2013 Скачать
1 | 0
Зарубежные сериалы [ 24.67 GB ] Джек Райан / Jack Ryan / Сезон: 2 / Серии: 1-8 из 8 [2019 WEB-DL 1080p] MVO [TVShows] bober100 Скачать
1 | 0
Зарубежные сериалы [ 11.42 GB ] Джек Райан / Jack Ryan / Сезон: 2 / Серия: 1-8 из 8 [2019 WEB-DL 720p] MVO [Jaskier] bober100 Скачать
1 | 0
Зарубежные сериалы [ 4.31 GB ] Джек Райан / Jack Ryan / Сезон: 2 / Серия: 1-8 из 8 [2019 WEB-DLRip] MVO [Jaskier] bober100 Скачать
1 | 0
Зарубежные сериалы [ 12.74 GB ] Джек Райан / Jack Ryan / Сезон: 2 / Серия: 1-8 из 8 [2019 WEB-DL 720p] MVO [Lostfilm] bober100 Скачать
1 | 0
Зарубежные сериалы [ 5.16 GB ] Джек Райан / Jack Ryan / Сезон: 2 / Серии: 1-8 из 8 [2019 WEB-DLRip] MVO [LostFilm] bober100 Скачать
1 | 0
Зарубежные сериалы [ 26.17 GB ] Джек Райан / Jack Ryan / Сезон: 2 / Серии: 1-8 из 8 [2019 WEB-DL 1080p] MVO [Lostfilm] bober100 Скачать
1 | 0

28-11-2019 20:33  

Отключить всю рекламу на сайте

    Дорогой пользователь! Огромная просьба, поблагодарите релизера, оцените раздачу и оставьте свои комментарий, если Вы скачали Джек Райан через торрент бесплатно! Внесите свою лепту в развитие PiratBit!
    Комментировать посты могут только пользователи прошедшие не сложную регистрацию
    Показать сообщения:    

    Джек Райан через торрент
    Скачать бесплатно Джек Райан
    Джек Райан скачать торрент
    Джек Райан смотреть онлайн
    Cкачать фильм Джек Райан бесплатно
    Джек Райан скачать торрент в хорошем качестве
    Джек Райан смотреть онлайн бесплатно в хорошем качестве


    Вы не можете начинать темы
    Вы не можете отвечать на сообщения
    Вы не можете редактировать свои сообщения
    Вы не можете удалять свои сообщения
    Вы не можете голосовать в опросах
    Вы не можете прикреплять файлы к сообщениям
    Вы можете скачивать файлы