2 сезон

iTunes

WEBRip

1

2 сезон

iTunes

1 сезон

1 сезон

RePack

30

Ultimate

ВАЖНО

ИГРА 18+

pack

RePack

MK11
pack

Легкие деньги

RePack

jed

RePack

fifa19

RePack

RDR2

RePack

NEED FOR SPEED™ PAYBACK

4 сезон

9 сезон

Бесстыжие 9 сезон

Все сериалы

все сериалы на PB.wtf

RePack

FAR CRY 5

Anonymous, доброй ночи, мы не успеваем собрать деньги на оплату серверов за февраль, помогите нам пожалуйста в это трудное время. В качестве благодарности мы отключим Вам всю рекламу на сайте (укажите свой ник в строку Ваше имя)!

×
  
Magnet ссылка

Ускорение / Acceleration (Майкл Мерино, Дэниэл Дзирилли) [2019, Боевик, триллер, BD Remux 1080p] MVO [iTunes] pb.wtf

Ускорение через торрент pb.wtf

Размер: 15.11 GB | Добавлен: 1 мес. 30 д. назад | Торрент скачан:6 раз
Скачать  

13-11-2019 15:36 Ускорение Скачать торрент  

Ускорение | Acceleration
Год выпуска: 2019
Страна: США
Студия: 7Heaven Productions, Cinetel Films, MCMFILMS
Жанр: Боевик, триллер, криминал
Продолжительность: 01:25:13
Перевод: Профессиональный (многоголосый) | iTunes
Субтитры: Английские

Режиссер: Майкл Мерино, Дэниэл Дзирилли

rating

В ролях: Шон Патрик Флэнери, Дольф Лундгрен, Чак Лиделл, Наталия Берн, Куинтон Джексон, Дэнни Трехо, Ал Сапиенза, Нг Мэйлин, Джейсон Лондон, Салли Кёркленд

Описание: Владик Зорич (Дольф Лундгрен), преступный гений, чьи щупальца дотянулись до каждого аспекта преступной жизни Лос-Анджелеса, будь то оружие, азартные игры, наркотики или торговля людьми, выясняет, что его пути пересеклись с самой ловкой оперативницей Роной Зёкки. Похитив сына Роны, Владик заставляет Рону устранить своих конкурентов и вернуть важную информацию и всё это в одну ночь.

Качество: BD Remux 1080p
Формат: MKV

Видео: MPEG-4 AVC, 1920x1080, 20.8 Mbit/s, 23.976 fps
Аудио #01: 48 kHz, AC3, 5.1, 384 Kbps | iTunes | RUS |
Аудио #02: 48 kHz, DTS-HD MA, 5.1, 4223 Kbps | Оригинал | ENG |
скриншот  скриншот  скриншот  скриншот  скриншот  

General
Unique ID : 193265399759157016971499255230796899275 (0x91658FE33B0544C0A4466899E333A3CB)
Complete name : E:VideoFirstAcceleration.2019.BDREMUX.1080p.seleZen.mkv
Format : Matroska
Format version : Version 4
File size : 15.1 GiB
Duration : 1 h 25 min
Overall bit rate mode : Variable
Overall bit rate : 25.4 Mb/s
Movie name : Acceleration 2019 from seleZen
Encoded date : UTC 2021-01-02 14:38:17
Writing application : mkvmerge v40.0.0 ('Old Town Road + Pony') 64-bit
Writing library : libebml v1.3.9 + libmatroska v1.5.2

Video
ID : 1
Format : AVC
Format/Info : Advanced Video Codec
Format profile : High@L4.1
Format settings : CABAC / 4 Ref Frames
Format settings, CABAC : Yes
Format settings, Reference : 4 frames
Codec ID : V_MPEG4/ISO/AVC
Duration : 1 h 25 min
Bit rate mode : Variable
Bit rate : 20.8 Mb/s
Maximum bit rate : 36.0 Mb/s
Width : 1 920 pixels
Height : 1 080 pixels
Display aspect ratio : 16:9
Frame rate mode : Constant
Frame rate : 23.976 (24000/1001) FPS
Color space : YUV
Chroma subsampling : 4:2:0
Bit depth : 8 bits
Scan type : Progressive
Bits/(Pixel*Frame) : 0.418
Stream size : 12.4 GiB (82%)
Language : English
Default : Yes
Forced : No

Audio #1
ID : 2
Format : AC-3
Format/Info : Audio Coding 3
Commercial name : Dolby Digital
Codec ID : A_AC3
Duration : 1 h 25 min
Bit rate mode : Constant
Bit rate : 384 kb/s
Channel(s) : 6 channels
Channel layout : L R C LFE Ls Rs
Sampling rate : 48.0 kHz
Frame rate : 31.250 FPS (1536 SPF)
Compression mode : Lossy
Stream size : 234 MiB (2%)
Title : iTunes
Language : Russian
Service kind : Complete Main
Default : Yes
Forced : Yes

Audio #2
ID : 3
Format : DTS XLL
Format/Info : Digital Theater Systems
Commercial name : DTS-HD Master Audio
Codec ID : A_DTS
Duration : 1 h 25 min
Bit rate mode : Variable
Bit rate : 4 223 kb/s
Channel(s) : 6 channels
Channel layout : C L R Ls Rs LFE
Sampling rate : 48.0 kHz
Frame rate : 93.750 FPS (512 SPF)
Bit depth : 24 bits
Compression mode : Lossless
Stream size : 2.51 GiB (17%)
Title : Original
Language : English
Default : No
Forced : No

Text
ID : 4
Format : UTF-8
Codec ID : S_TEXT/UTF8
Codec ID/Info : UTF-8 Plain Text
Duration : 1 h 23 min
Bit rate : 45 b/s
Count of elements : 1001
Stream size : 28.0 KiB (0%)
Title : Original
Language : English
Default : No
Forced : No

Menu
00:00:00.000 : en:Chapter 01
00:13:54.917 : en:Chapter 02
00:29:57.963 : en:Chapter 03
00:42:03.604 : en:Chapter 04
00:53:20.781 : en:Chapter 05
01:02:25.325 : en:Chapter 06
01:12:00.691 : en:Chapter 07
01:20:12.349 : en:Chapter 08

pb.wtf



Скачать Ускорение через торрент https://d.radikal.ru/d39/2101/67/b1af3752837a.jpg Скачать фильм Ускорение через торрент бесплантно в хорошем качестве Описание: Владик Зорич (Дольф Лундгрен), преступный гений, чьи щупальца дотянулись до каждого аспекта преступной жизни Лос-Анджелеса, будь ... 10 10 4
Торрент: Зарегистрирован [2021-01-02 15:00] · скачан: 6 раз
Статус: √ проверено
Размер: 15.11 GB
Как cкачать? Как скачать Ускорение через торрент | UTorrent

% Раздел Тема Автор DL S | L
Фильмы 2019-2020 [DVDrip, WEB-DLRip, HDrip] (DUB, MVO) [ 1.42 GB ] Ускорение / Acceleration [2019 BDRip] MVO Twi7ter Скачать
4 | 0
Фильмы 2019-2020 [DVDrip, WEB-DLRip, HDrip] (DUB, MVO) [ 1.45 GB ] Ускорение / Acceleration [2020 HDRip-AVC] [MVO] от MediaBit Lithuania Скачать
4 | 0
Фильмы 2019-2020 [DVDrip, WEB-DLRip, HDrip] (DUB, MVO) [ 1.42 GB ] Ускорение / Acceleration [2019 BDRip] MVO bober100 Скачать
1 | 0
Фильмы [HD 720p, 1080p] (Хороший звук DUB, MVO) [ 9.73 GB ] Ускорение / Acceleration [2019 BDRip 1080p] MVO bober100 Скачать
1 | 0
T Фильмы (мультфильмы) cо спонсором показа (Новинки AVI/MKV) [ 1.37 GB ] Ускорение / Acceleration [2019 WEB-DLRip] MVO ["Синема УС"] bober100 Скачать
1 | 0

28-11-2019 20:33  

Отключить всю рекламу на сайте

    Дорогой пользователь! Огромная просьба, поблагодарите релизера, оцените раздачу и оставьте свои комментарий, если Вы скачали Ускорение через торрент бесплатно! Внесите свою лепту в развитие PiratBit!
    Комментировать посты могут только пользователи прошедшие не сложную регистрацию
    Показать сообщения:    

    Ускорение через торрент
    Скачать бесплатно Ускорение
    Ускорение скачать торрент
    Ускорение смотреть онлайн
    Cкачать фильм Ускорение бесплатно
    Ускорение скачать торрент в хорошем качестве
    Ускорение смотреть онлайн бесплатно в хорошем качестве


    Вы не можете начинать темы
    Вы не можете отвечать на сообщения
    Вы не можете редактировать свои сообщения
    Вы не можете удалять свои сообщения
    Вы не можете голосовать в опросах
    Вы не можете прикреплять файлы к сообщениям
    Вы можете скачивать файлы