2 сезон

iTunes

WEBRip

1

2 сезон

iTunes

1 сезон

1 сезон

RePack

30

Новинка

ВАЖНО

ИГРА 18+

pack

RePack

MK11
pack

Легкие деньги

RePack

jed

RePack

fifa19

RePack

RDR2

RePack

NEED FOR SPEED™ PAYBACK

4 сезон

9 сезон

Бесстыжие 9 сезон

Все сериалы

все сериалы на PB.wtf

RePack

FAR CRY 5

Anonymous, добрый вечер, мы не успеваем собрать деньги на оплату серверов за февраль, помогите нам пожалуйста в это трудное время. В качестве благодарности мы отключим Вам всю рекламу на сайте (укажите свой ник в строку Ваше имя)!

×
  
Magnet ссылка

Ускорение / Acceleration (Майкл Мерино, Дэниэл Дзирилли) [2019, Боевик, триллер, BDRip 1080p] MVO [iTunes] pb.wtf

Ускорение через торрент pb.wtf

Размер: 9.73 GB | Добавлен: 1 мес. 26 д. назад | Торрент скачан:48 раз
Скачать  

13-11-2019 15:36 Ускорение Скачать торрент  

Ускорение | Acceleration
Год выпуска: 2019
Страна: США
Студия: 7Heaven Productions, Cinetel Films, MCMFILMS
Жанр: Боевик, триллер, криминал
Продолжительность: 01:25:12
Перевод: Профессиональный (многоголосый) | iTunes
Субтитры: Английские

Режиссер: Майкл Мерино, Дэниэл Дзирилли

rating

В ролях: Шон Патрик Флэнери, Дольф Лундгрен, Чак Лиделл, Наталия Берн, Куинтон Джексон, Дэнни Трехо, Ал Сапиенза, Нг Мэйлин, Джейсон Лондон, Салли Кёркленд

Описание: Владик Зорич – криминальный авторитет Лос-Анджелеса, он торгует оружием, наркотиками, управляет подпольными казино и похищает людей ради выкупа. Его агент, которому он доверял больше всех – Рона Зиоки, обманывает его. Поэтому Владик похищает сына Роны и шантажом заставляет ее делать грязную работу, которая у него скопилась: отомстить своим врагам, добыть нужную информацию и ценности. Пять заданий она должна успеть выполнить за одну ночь. А чтобы держать Рону на коротком поводке, он диктует ей правила игры, следя за каждым ее шагом. Но Владик недооценил силу материнской любви и вскоре обнаруживает, что все выходит из-под контроля и его план медленно рушится.

Качество: BDRip 1080p
Формат: MKV

Видео: MPEG-4 AVC, 14.4 Mb/s, 1920x1080, 23.976 fps
Аудио #1 Russian: 48 kHz, AC3 Dolby Digital, 3/2 (L, C, R, l, r) + LFE ch, ~384 Kbps | iTunes
Аудио #2 English: 48 kHz, Digital Theater Systems, 3/2 (L, C, R, l, r) + LFE ch, ~1509 Kbps | Original
скриншот  скриншот  скриншот  скриншот  

Complete name: Uskorenie.2019.1080p.BluRay.ELEKTRI4KA.UNIONGANG.mkv
Format: Matroska
Format version: Version 4 / Version 2
File size: 9.73 GiB
Duration: 1 h 25 min
Overall bit rate: 16.3 Mb/s
Movie name: .ELEKTRI4KA.UNIONGANG.
Encoded date: UTC 2021-01-01 18:05:07
Writing application: mkvmerge v8.3.0 ('Over the Horizon') 64bit
Writing library: libebml v1.3.1 + libmatroska v1.4.2

Video
ID: 1
Format: AVC
Format/Info: Advanced Video Codec
Format profile: High@L4.1
Format settings, CABAC: Yes
Format settings, Reference frames: 4 frames
Codec ID: V_MPEG4/ISO/AVC
Duration: 1 h 25 min
Bit rate: 14.4 Mb/s
Width: 1 920 pixels
Height: 1 080 pixels
Display aspect ratio: 16:9
Frame rate mode: Constant
Frame rate: 23.976 (24000/1001) FPS
Color space: YUV
Chroma subsampling: 4:2:0
Bit depth: 8 bits
Scan type: Progressive
Bits/(Pixel*Frame): 0.291
Stream size: 8.60 GiB (88%)
Writing library: x264 core 158 r2988+50 ~ Encoded by Mocunaman in Portugal
Encoding settings: cabac=1 / ref=4 / deblock=1:-3:-3 / analyse=0x3:0x113 / me=umh / subme=10 / psy=1 / fade_compensate=0.00 / psy_rd=1.00:0.00 / mixed_ref=1 / me_range=32 / chroma_me=1 / trellis=2 / 8x8dct=1 / cqm=0 / deadzone=21, 11 / fast_pskip=0 / chroma_qp_offset=-2 / threads=34 / lookahead_threads=8 / sliced_threads=0 / nr=0 / decimate=0 / interlaced=0 / bluray_compat=0 / constrained_intra=0 / fgo=0 / bframes=10 / b_pyramid=2 / b_adapt=2 / b_bias=0 / direct=3 / weightb=1 / open_gop=0 / weightp=2 / keyint=250 / keyint_min=23 / scenecut=40 / intra_refresh=0 / rc_lookahead=60 / rc=crf / mbtree=0 / crf=17.0000 / qcomp=0.60 / qpmin=0:0:0 / qpmax=69:69:69 / qpstep=4 / vbv_maxrate=62500 / vbv_bufsize=78125 / crf_max=0.0 / nal_hrd=none / filler=0 / ip_ratio=1.30 / pb_ratio=1.20 / aq=3:0.85 / aq-sensitivity=10.00 / aq-factor=1.00:1.00:1.00 / aq2=0 / aq3=0
Language: English
Default: Yes
Forced: No
Color range: Limited
Color primaries: BT.709
Transfer characteristics: BT.709
Matrix coefficients: BT.709

Audio #1
ID: 2
Format: AC-3
Format/Info: Audio Coding 3
Mode extension: CM (complete main)
Format settings, Endianness: Big
Codec ID: A_AC3
Duration: 1 h 25 min
Bit rate mode: Constant
Bit rate: 384 kb/s
Channel(s): 6 channels
Channel positions: Front: L C R, Side: L R, LFE
Sampling rate: 48.0 kHz
Frame rate: 31.250 FPS (1536 spf)
Bit depth: 16 bits
Compression mode: Lossy
Stream size: 234 MiB (2%)
Title: MVO (iTunes)
Language: Russian
Default: Yes
Forced: Yes

Audio #2
ID: 3
Format: DTS
Format/Info: Digital Theater Systems
Mode: 16
Format settings, Endianness: Big
Codec ID: A_DTS
Duration: 1 h 25 min
Bit rate mode: Constant
Bit rate: 1 509 kb/s
Channel(s): 6 channels
Channel positions: Front: L C R, Side: L R, LFE
Sampling rate: 48.0 kHz
Frame rate: 93.750 FPS (512 spf)
Bit depth: 24 bits
Compression mode: Lossy
Stream size: 920 MiB (9%)
Title: Original
Language: English
Default: No
Forced: No

Text
ID: 4
Format: PGS
Muxing mode: zlib
Codec ID: S_HDMV/PGS
Codec ID/Info: Picture based subtitle format used on BDs/HD-DVDs
Duration: 1 h 23 min
Bit rate: 8 030 b/s
Count of elements: 2184
Stream size: 4.80 MiB (0%)
Title: SDH
Language: English
Default: Yes
Forced: No

Menu
00:00:00.000: en:Chapter 01
00:13:54.917: en:Chapter 02
00:29:57.963: en:Chapter 03
00:42:03.604: en:Chapter 04
00:53:20.781: en:Chapter 05
01:02:25.325: en:Chapter 06
01:12:00.691: en:Chapter 07
01:20:12.349: en:Chapter 08

pb.wtf



Скачать Ускорение через торрент https://i114.fastpic.ru/big/2021/0101/9e/110cc0e8b4b55aade1c3d41a5f03b79e.jpg Скачать фильм Ускорение через торрент бесплантно в хорошем качестве Описание: Владик Зорич – криминальный авторитет Лос-Анджелеса, он торгует оружием, наркотиками, управляет подпольными казино и похищает ... 8.5 10 6
Торрент: Зарегистрирован [2021-01-01 18:45] · скачан: 48 раз
Статус: √ проверено
Размер: 9.73 GB
Как cкачать? Как скачать Ускорение через торрент | UTorrent

% Раздел Тема Автор DL S | L
Фильмы 2019-2020 [DVDrip, WEB-DLRip, HDrip] (DUB, MVO) [ 1.42 GB ] Ускорение / Acceleration [2019 BDRip] MVO Twi7ter Скачать
1 | 0
Фильмы 2019-2020 [DVDrip, WEB-DLRip, HDrip] (DUB, MVO) [ 1.45 GB ] Ускорение / Acceleration [2020 HDRip-AVC] [MVO] от MediaBit Lithuania Скачать
1 | 0
Фильмы 2019-2020 [DVDrip, WEB-DLRip, HDrip] (DUB, MVO) [ 1.42 GB ] Ускорение / Acceleration [2019 BDRip] MVO bober100 Скачать
1 | 0
Фильмы (Blu-ray, BD-Remux, HDDVD) [ 15.11 GB ] Ускорение / Acceleration [2019 BD Remux 1080p] MVO bober100 Скачать
1 | 0
T Фильмы (мультфильмы) cо спонсором показа (Новинки AVI/MKV) [ 1.37 GB ] Ускорение / Acceleration [2019 WEB-DLRip] MVO ["Синема УС"] bober100 Скачать
1 | 0

28-11-2019 20:33  

Отключить всю рекламу на сайте

    Дорогой пользователь! Огромная просьба, поблагодарите релизера, оцените раздачу и оставьте свои комментарий, если Вы скачали Ускорение через торрент бесплатно! Внесите свою лепту в развитие PiratBit!
    Комментировать посты могут только пользователи прошедшие не сложную регистрацию
    Показать сообщения:    

    Ускорение через торрент
    Скачать бесплатно Ускорение
    Ускорение скачать торрент
    Ускорение смотреть онлайн
    Cкачать фильм Ускорение бесплатно
    Ускорение скачать торрент в хорошем качестве
    Ускорение смотреть онлайн бесплатно в хорошем качестве


    Вы не можете начинать темы
    Вы не можете отвечать на сообщения
    Вы не можете редактировать свои сообщения
    Вы не можете удалять свои сообщения
    Вы не можете голосовать в опросах
    Вы не можете прикреплять файлы к сообщениям
    Вы можете скачивать файлы