новый адрес
Ссылка на приватное зеркало всего за 1$. Внимание количество ограничено!!!

iTunes

1+1

iTunes

мы

WEB-DL

1

iTunes

Чернобыль

iTunes

Ральф против интернета

Лицензия

ПШазам

Лицензия

Оно 2

Лицензия

30
pack

Вам бонус

ВАЖНО

!!Акция!!

Alien_RageХит недели

RePack

Resident Evil 21

ИГРА 18+

pack

RePack

jed

!!Акция!!

Alien_Rage

RePack

fifa19

RePack

Assassins Creed: Odyssey

RePack

NEED FOR SPEED™ PAYBACK

3 сезон

9 сезон

Бесстыжие 9 сезон

Все сериалы

все сериалы на PB.wtf

RePack

FAR CRY 5
Ребята, катастрофически не хватает 1900р. для оплаты серверов за Октябрь (всвязи с блокировками трафик упал в 3 раза), 1-2р., выручайте.
  

После свадьбы / After the Wedding (Барт Фрейндлих) [2019 г., драма, HDRip, Дубляж "iTunes"] pb.wtf

После свадьбы через торрент pb.wtf

Раздают: 2 [ 0 KB/s ]
Размер: 710 MB | Добавлен: 25 д. назад | Торрент скачан:12 раз
Скачать  

13-11-2019 18:38 После свадьбы Скачать торрент  

После свадьбы / After the Wedding
Год выпуска: 2019
Страна: США / Ingenious Media, Joel B. Michaels Productions, Riverstone Pictures
Жанр: драма
Продолжительность: 01:52:07
Перевод: Дубляж (iTunes)

Режиссер: Барт Фрейндлих

rating

В ролях: Мишель Уильямс, Билли Крудап, Джулианна Мур, Уилл Чейз, Эбби Куинн, Эжи Робертсон, Дорис Маккарти, Сьюзэн Блэкуэлл, Иса Дэвис, Алекс Исола

Описание: Изабель посвятила свою жизнь помощи другим. Она узнает, что женщина, возглавляющая многомиллионную корпорацию, готова пожертвовать ей огромную сумму. Их встреча в Нью-Йорке проходит успешно, но все меняется, когда Изабель случайно встречает ее мужа. Она еще не знает, что кто-то начал игру чужими судьбами, в которой правда окажется опаснее лжи...

Качество: HDRip
Формат: AVI
Видео кодек: DivX
Аудио кодек: MP3
Видео: 640x272 (2.35:1), 23.976 fps, DivX Codec 4.x ~747 kbps avg, 0.18 bit/pixel
Аудио: 48 kHz, MPEG Layer 3, 2 ch, ~128.00 kbps avg
скриншот   скриншот   скриншот   скриншот   скриншот  

Общее
Полное имя : F:\ФИЛЬМЫ\После свадьбы.2019.D.HDRip.avi
Формат : AVI
Формат/Информация : Audio Video Interleave
Размер файла : 710 Мбайт
Продолжительность : 1 ч. 52 м.
Общий поток : 885 Кбит/сек
Программа кодирования : VirtualDubMod 1.5.10.3 | www.virtualdub-fr.org || (build 2550/release)
Библиотека кодирования : VirtualDubMod build 2550/release

Видео
Идентификатор : 0
Формат : MPEG-4 Visual
Профиль формата : Advanced Simple@L5
Настройки формата : BVOP3 / GMC3 / QPel
Параметр BVOP формата : 3
Параметр QPel формата : Да
Параметр GMC формата : 3 точки перехода
Параметр матрицы формата : Default (MPEG)
Идентификатор кодека : DIVX
Идентификатор кодека/Информация : Project Mayo
Идентификатор кодека/Подсказка : DivX 4
Продолжительность : 1 ч. 52 м.
Битрейт : 748 Кбит/сек
Ширина : 640 пикселей
Высота : 272 пикселя
Соотношение сторон : 2,35:1
Частота кадров : 23,976 (24000/1001) кадра/сек
Цветовое пространство : YUV
Субдискретизация насыщенности : 4:2:0
Битовая глубина : 8 бит
Тип развёртки : Прогрессивная
Метод сжатия : С потерями
Бит/(Пиксели*Кадры) : 0.179
Размер потока : 600 Мбайт (85%)
Библиотека кодирования : XviD 1.2.1 (UTC 2008-12-04)

Аудио
Идентификатор : 1
Формат : MPEG Audio
Версия формата : Version 1
Профиль формата : Layer 3
Настройки формата : Joint stereo / MS Stereo
Идентификатор кодека : 55
Идентификатор кодека/Подсказка : MP3
Продолжительность : 1 ч. 51 м.
Вид битрейта : Постоянный
Битрейт : 128 Кбит/сек
Каналы : 2 канала
Частота : 48,0 КГц
Частота кадров : 41,667 кадра/сек (1152 SPF)
Метод сжатия : С потерями
Размер потока : 102 Мбайт (14%)
Выравнивание : Соединение по промежуткам
Продолжительность промежутка : 42 мс. (1,00 видеокадр)
Время предзагрузки промежутка : 504 мс.
Библиотека кодирования : LAME3.99r
Настройки программы : -m j -V 4 -q 2 -lowpass 17 -b 128

pb.wtf



Скачать После свадьбы через торрент http://pic1.kartinco.top/images/12/4d7wg.jpg Скачать фильм После свадьбы через торрент бесплантно в хорошем качестве Описание: Изабель посвятила свою жизнь помощи другим. Она узнает, что женщина, возглавляющая многомиллионную корпорацию, готова ... 5 10 1
Торрент: Зарегистрирован [2019-11-13 18:38] · скачан: 12 раз
Статус: √ проверено
Размер: 710 MB
Как cкачать? Как скачать После свадьбы через торрент | qTorrent

% Раздел Тема Автор DL S | L
Фильмы 2019 [DVDrip, WEB-DLRip, HDrip] (DUB, MVO) [ 744 MB ] После свадьбы / After the Wedding [2019 BDRip-AVC] - OlLanDGroup Skandar2019 Скачать
4 | 0
Фильмы [HD 720p, 1080p] (Хороший звук DUB, MVO) [ 8.2 GB ] После свадьбы / After the Wedding [2019 BDRip 1080p] DUB bober100 Скачать
2 | 0
Фильмы 2019 [DVDrip, WEB-DLRip, HDrip] (DUB, MVO) [ 1.41 GB ] После свадьбы / After the Wedding [2019 BDRip] bober100 Скачать
7 | 0

28-11-2019 20:33  

Отключить всю рекламу на сайте

    Дорогой пользователь! Огромная просьба, поблагодарите релизера, оцените раздачу и оставьте свои комментарий, если Вы скачали После свадьбы через торрент бесплатно! Внесите свою лепту в развитие PiratBit!
    Комментировать посты могут только пользователи прошедшие не сложную регистрацию
    Показать сообщения:    

    После свадьбы через торрент
    Скачать бесплатно После свадьбы
    После свадьбы скачать торрент
    После свадьбы смотреть онлайн
    Cкачать фильм После свадьбы бесплатно
    После свадьбы скачать торрент в хорошем качестве
    После свадьбы смотреть онлайн бесплатно в хорошем качестве


    Вы не можете начинать темы
    Вы не можете отвечать на сообщения
    Вы не можете редактировать свои сообщения
    Вы не можете удалять свои сообщения
    Вы не можете голосовать в опросах
    Вы не можете прикреплять файлы к сообщениям
    Вы можете скачивать файлы