2 сезон

iTunes

MVO

1

2 сезон

iTunes

iTunes

1 сезон

RePack

30

Ultimate

ВАЖНО

ИГРА 18+

pack

RePack

MK11
pack

Легкие деньги

RePack

jed

RePack

fifa19

RePack

RDR2

RePack

NEED FOR SPEED™ PAYBACK

4 сезон

9 сезон

Бесстыжие 9 сезон

Все сериалы

все сериалы на PB.wtf

RePack

FAR CRY 5

Anonymous, добрый вечер, мы не успеваем собрать деньги на оплату серверов за декабрь и январь, помогите нам пожалуйста в это трудное время. В качестве благодарности мы отключим Вам всю рекламу на сайте (укажите свой ник в строку Ваше имя)!

×
  
Magnet ссылка

Толкин / Tolkien (Доме Карукоски) [2019, драма, BDRip - HEVC 1080p 10 bit 60 FPS] Профессиональный [многоголосый] pb.wtf

Толкин через торрент pb.wtf

Размер: 3.9 GB | Добавлен: 1 год 2 мес. назад | Торрент скачан:76 раз
Скачать  

13-11-2019 20:02 Толкин Скачать торрент  

Толкин / Tolkien
««A Life of Love, Courage, and Fellowship»»

Год выпуска: 2019
Страна: США
Жанр: драма,
Продолжительность: 01:51:42
Перевод: Профессиональный [многоголосый]
Субтитры: русские (Full).
Режиссер: Доме Карукоски
В ролях:

Лили Коллинз (Edith Bratt), Дерек Джекоби (Professor Wright), Николас Холт (J.R.R. Tolkien), Al Bollands (First Soldier), Kallum Tolkien (Second Soldier), Крэйг Робертс (Private Sam Hodges), Гарри Джилби (J.R.R. Tolkien (Young)), Колм Мини (Father Francis), Лаура Доннелли (Mabel Tolkien), Гильермо Бедуорд (Hilary Tolkien (Young)), Ниа Гвин (Bronwen), Пэм Феррис (Mrs. Faulkner)
Описание:
Картина рассказывает о том, как молодой писатель, будучи изгоем во время обучения, находит дружбу, любовь и вдохновение. Фильм затронет участие Толкина в Первой мировой войне - он служил в британских войсках с 1916-го по 1920-й.
Мировая премьера: 3 мая 2019

Качество: BDRip 1080p Rip by DD2D3
Исходник: BDRemux by SeLeZeN
Формат: MKV
Видео: V_MPEGH/ISO/HEVC, 1920x804 (2.40:1), 4543 kbps, 59,940 fps, 0,049 bpp
Аудио: русский / AC3 / 5.1 / 48 kHz / 448 kbps / ||
Навигация по главам: есть


eneral
Unique ID : 250509415072141707527164970847976126357 (0xBC765BBF0B0AD7548B4114AACFA57795)
Complete name : D:\Толкин - Tolkien (2019) BDRip - HEVC 1080p 10 bit 60 FPS.mkv
Format : Matroska
Format version : Version 4
File size : 3.90 GiB
Duration : 1 h 51 min
Overall bit rate : 4 995 kb/s
Movie name : Rip by DD2D3
Encoded date : UTC 2019-11-13 19:00:47
Writing application : mkvmerge v10.0.0 ('To Drown In You') 32bit
Writing library : libebml v1.3.4 + libmatroska v1.4.5
Attachments : poster

Video
ID : 1
Format : HEVC
Format/Info : High Efficiency Video Coding
Format profile : Main 10@L4.1@Main
Codec ID : V_MPEGH/ISO/HEVC
Duration : 1 h 51 min
Bit rate : 4 543 kb/s
Width : 1 920 pixels
Height : 804 pixels
Display aspect ratio : 2.40:1
Frame rate mode : Constant
Frame rate : 59.940 (60000/1001) FPS
Color space : YUV
Chroma subsampling : 4:2:0
Bit depth : 10 bits
Bits/(Pixel*Frame) : 0.049
Stream size : 3.54 GiB (91%)
Writing library : x265 2.3+33-0b7d54dbb71a87a0:[Windows][MSVC 1800][64 bit] 10bit: KG7x [x265.ru]
Encoding settings : cpuid=1173503 / frame-threads=2 / numa-pools=4 / wpp / no-pmode / no-pme / no-psnr / no-ssim / log-level=2 / input-csp=1 / input-res=1920x804 / interlace=0 / total-frames=401721 / level-idc=41 / high-tier=1 / uhd-bd=0 / ref=3 / no-allow-non-conformance / no-repeat-headers / annexb / no-aud / no-hrd / info / hash=0 / no-temporal-layers / open-gop / min-keyint=25 / keyint=250 / bframes=4 / b-adapt=2 / b-pyramid / bframe-bias=0 / rc-lookahead=20 / lookahead-slices=5 / scenecut=40 / no-intra-refresh / ctu=64 / min-cu-size=8 / no-rect / no-amp / max-tu-size=32 / tu-inter-depth=1 / tu-intra-depth=1 / limit-tu=0 / rdoq-level=0 / dynamic-rd=0.00 / no-ssim-rd / signhide / no-tskip / nr-intra=0 / nr-inter=0 / no-constrained-intra / strong-intra-smoothing / max-merge=2 / limit-refs=3 / no-limit-modes / me=1 / subme=2 / merange=57 / temporal-mvp / weightp / no-weightb / no-analyze-src-pics / deblock=0:0 / no-sao / no-sao-non-deblock / rd=3 / no-early-skip / no-rskip / no-fast-intra / no-tskip-fast / no-cu-lossless / no-b-intra / rdpenalty=0 / psy-rd=4.00 / psy-rdoq=0.00 / no-rd-refine / analysis-mode=0 / no-lossless / cbqpoffs=0 / crqpoffs=0 / rc=abr / bitrate=4500 / qcomp=0.60 / qpstep=1 / stats-write=0 / stats-read=2 / cplxblur=20.0 / qblur=0.5 / ipratio=1.10 / pbratio=1.00 / aq-mode=0 / aq-strength=0.00 / no-cutree / zone-count=0 / no-strict-cbr / qg-size=64 / rc-grain / qpmax=69 / qpmin=0 / sar=1 / overscan=0 / videoformat=5 / range=0 / colorprim=2 / transfer=2 / colormatrix=2 / chromaloc=0 / display-window=0 / max-cll=0,0 / min-luma=0 / max-luma=1023 / log2-max-poc-lsb=8 / vui-timing-info / vui-hrd-info / slices=1 / opt-qp-pps / opt-ref-list-length-pps / no-multi-pass-opt-rps / scenecut-bias=0.05 / no-opt-cu-delta-qp / no-aq-motion / no-hdr / no-hdr-opt / refine-level=5 / no-limit-sao
Default : Yes
Forced : No

Audio
ID : 2
Format : AC-3
Format/Info : Audio Coding 3
Commercial name : Dolby Digital
Codec ID : A_AC3
Duration : 1 h 51 min
Bit rate mode : Constant
Bit rate : 448 kb/s
Channel(s) : 6 channels
Channel layout : L R C LFE Ls Rs
Sampling rate : 48.0 kHz
Frame rate : 31.250 FPS (1536 SPF)
Bit depth : 16 bits
Compression mode : Lossy
Stream size : 358 MiB (9%)
Title : MVO [License]
Language : Russian
Service kind : Complete Main
Default : No
Forced : No

Text
ID : 3
Format : UTF-8
Codec ID : S_TEXT/UTF8
Codec ID/Info : UTF-8 Plain Text
Duration : 1 h 45 min
Bit rate : 81 b/s
Count of elements : 1386
Stream size : 62.8 KiB (0%)
Title : Full
Language : Russian
Default : No
Forced : No

Menu
00:00:00.000 : en:00:00:00.000
00:06:27.137 : en:00:06:27.137
00:11:09.419 : en:00:11:09.419
00:15:51.117 : en:00:15:51.117
00:21:00.885 : en:00:21:00.885
00:25:53.802 : en:00:25:53.802
00:34:35.031 : en:00:34:35.031
00:37:46.639 : en:00:37:46.639
00:42:01.227 : en:00:42:01.227
00:44:44.098 : en:00:44:44.098
00:47:39.774 : en:00:47:39.774
00:52:04.955 : en:00:52:04.955
00:57:06.423 : en:00:57:06.423
00:59:59.971 : en:00:59:59.971
01:04:39.334 : en:01:04:39.334
01:08:09.002 : en:01:08:09.002
01:11:17.398 : en:01:11:17.398
01:14:29.090 : en:01:14:29.090
01:19:45.656 : en:01:19:45.656
01:26:09.539 : en:01:26:09.539
01:32:11.985 : en:01:32:11.985
01:35:52.497 : en:01:35:52.497
01:40:05.666 : en:01:40:05.666
01:45:06.091 : en:01:45:06.091
скриншот  скриншот  скриншот  скриншот  скриншот  

© Оформление by DD2D3 pb.wtf



Скачать Толкин через торрент https://funkyimg.com/i/2YGqN.jpg Скачать фильм Толкин через торрент бесплантно в хорошем качестве Описание: Картина рассказывает о том, как молодой писатель, будучи изгоем во время обучения, находит дружбу, любовь и вдохновение. Фильм ... 10 10 3
Торрент: Зарегистрирован [2019-11-13 20:02] · скачан: 76 раз
Статус: √ проверено
Размер: 3.9 GB
Как cкачать? Как скачать Толкин через торрент | UTorrent

% Раздел Тема Автор DL S | L
Фильмы 2019-2020 [DVDrip, WEB-DLRip, HDrip] (DUB, MVO) [ 1.46 GB ] Толкин / Tolkien [2019 биография BDRip] MVO [] Twi7ter Скачать
17 | 2
Фильмы 2019-2020 [DVDrip, WEB-DLRip, HDrip] (DUB, MVO) [ 2.24 GB ] Толкин / Tolkien [2019 биография BDRip-AVC] 2xMVO [ HDRezka Studio] bober100 Скачать
3 | 0
Фильмы [HD 720p, 1080p] (Хороший звук DUB, MVO) [ 14.52 GB ] Толкин / Tolkien [2019 биография BDRip 1080p] MVO +DUB [] bober100 Скачать
2 | 0
Фильмы (Blu-ray, BD-Remux, HDDVD) [ 42.25 GB ] Толкин / Tolkien [2019 биография Blu-Ray EUR 1080p] MVO +DUB [] bober100 Скачать
1 | 0
Фильмы с украинским озвучиванием [ 1.45 GB ] Толкин / Tolkien [2019 биография BDRip] [Ukr DUB] () killermax2013 Скачать
1 | 0
Фильмы 2019-2020 [DVDrip, WEB-DLRip, HDrip] (DUB, MVO) [ 746 MB ] Толкин / Tolkien [2019 военный биография BDRip-AVC] [MVO] sokol_ok Скачать
5 | 0
Фильмы [HD 720p, 1080p] (Хороший звук DUB, MVO) [ 5.42 GB ] Толкин / Tolkien [2019 биография BDRip 720p] MVO +DUB [] bober100 Скачать
2 | 0

28-11-2019 20:33  

Отключить всю рекламу на сайте

14-11-2019 10:19 Толкин Скачать торрент  

фильм бомба, история создателя писателя Властелин колецpb.wtf



    Дорогой пользователь! Огромная просьба, поблагодарите релизера, оцените раздачу и оставьте свои комментарий, если Вы скачали Толкин через торрент бесплатно! Внесите свою лепту в развитие PiratBit!
    Комментировать посты могут только пользователи прошедшие не сложную регистрацию
    Показать сообщения:    

    Толкин через торрент
    Скачать бесплатно Толкин
    Толкин скачать торрент
    Толкин смотреть онлайн
    Cкачать фильм Толкин бесплатно
    Толкин скачать торрент в хорошем качестве
    Толкин смотреть онлайн бесплатно в хорошем качестве


    Вы не можете начинать темы
    Вы не можете отвечать на сообщения
    Вы не можете редактировать свои сообщения
    Вы не можете удалять свои сообщения
    Вы не можете голосовать в опросах
    Вы не можете прикреплять файлы к сообщениям
    Вы можете скачивать файлы