Anonymous, доброй ночи, присоединяйтесь к нам в Telegram!, здесь всегда актуальный адрес сайта, оперативная поддержка и многое другое!

>

5.5

iTunes

7.4

iTunes

7.9

iTunes

1

7.7

1 сезон

6.8

iTunes

7.3

1 сезон

13

6.7

1 сезон

8.3

RePack

30

ULTIMATE

pack

9.9

Лицензия

ВАЖНО

ИГРА 18+

pack

7.3

RePack

MK11

7.7

RePack

jed

7.8

RePack

fifa19

8.5

RePack

RDR2

RePack

NEED FOR SPEED™ PAYBACK

4 сезон

9 сезон

Бесстыжие 9 сезон

Все сериалы

все сериалы на PB.wtf

RePack

FAR CRY 5

Anonymous, доброй ночи, мы катастрофически не успеваем собрать деньги на оплату серверов, помогите нам пожалуйста 5,10,15р., для нас важна любая помощь . В качестве благодарности мы отключим Вам всю рекламу на сайте (укажите свой ник в строку Ваше имя)!

×
  
Magnet ссылка

Эпидемия / Сезон: 1 / Серии: 1-8 из 8 (Павел Костомаров) [2019, Фильм-катастрофа, фэнтези (+18), WEB-DLRip-AVC] pb.wtf

Эпидемия через торрент pb.wtf

Раздают: 1 [ 0 KB/s ]
Размер: 6.33 GB | Добавлен: 1 год 9 мес. назад | Торрент скачан:276 раз
Смотреть онлайн Эпидемия | Скачать    Ребята, помогите собрать деньги на оплату серверов!!!

13-11-2019 21:08 Эпидемия Скачать торрент  

Эпидемия
Год выпуска: 2019
Страна: Россия
Студия: ТНТ-PREMIER Studios
Жанр: Фильм-катастрофа, фэнтези
Продолжительность: ~ 00:55:00
Перевод: Не требуется
Субтитры: отсутствуют

Режиссер: Павел Костомаров

rating

В ролях: Кирилл Кяро, Виктория Исакова, Александр Робак, Марьяна Спивак, Савелий Кудряшов, Наталья Земцова, Юрий Кузнецов, Анна Михалкова, Александр Яценко, Игорь Савочкин, Павел Ворожцов, Артём Сучков, Константин Балакирев

Описание: Жёсткая семейная драма на фоне глобальной катастрофы, «Эпидемия» основана на романе Яны Вагнер «Вонгозеро», переведённом на 11 языков. В основе сюжета - неизвестный смертельный вирус, который быстро разрастается до страшной эпидемии. Сергей в компании своей новой возлюбленной и её сына-аутиста, а также бывшей жены, их сына и ещё нескольких примкнувших к ним попутчиков пытается спастись за границами карантина. Где-то далеко, на необитаемом острове в Карелии, стоит охотничий домик, где они смогут начать все с нуля. Но дорога в новую жизнь будет непростой, ведь бегут герои не только от глобальной катастрофы, но и личной семейной драмы.

Качество: WEB-DLRip-AVC
Формат: MKV

Видео: 1024х428 (2,40:1), 25 fps, AVC MPEG-4 (x264), High@L4.1 ~ 2000 kbps avg, 0.183 bit/pixel
Аудио 1: AC3, 48.0 kHz, 2/0 (L,R) ch, 192 kbps - без цензуры
Аудио 2: AC3, 48.0 kHz, 2/0 (L,R) ch, 192 kbps - с цензурой
скриншот  скриншот  скриншот  скриншот  

Общее
Уникальный идентификатор : 235021674552719412492478185728754693424 (0xB0CF872EF28CC296B49D9814EFC5B530)
Полное имя : D:\Epidemija.2019.WEB-DLRip.(AVC).ExKinoRay\Epidemija.E01.2019.WEB-DLRip.(AVC).ExKinoRay.mkv
Формат : Matroska
Версия формата : Version 4 / Version 2
Размер файла : 951 Мбайт
Продолжительность : 55 м. 44 с.
Общий поток : 2386 Кбит/сек
Дата кодирования : UTC 2019-11-20 14:54:47
Программа кодирования : mkvmerge v6.9.1 ('Blue Panther') 64bit built on Apr 18 2014 18:23:38
Библиотека кодирования : libebml v1.3.0 + libmatroska v1.4.1

Видео
Идентификатор : 1
Формат : AVC
Формат/Информация : Advanced Video Codec
Профиль формата : High@L4.1
Параметр CABAC формата : Да
Параметр RefFrames формата : 10 кадров
Идентификатор кодека : V_MPEG4/ISO/AVC
Продолжительность : 55 м. 44 с.
Битрейт : 2000 Кбит/сек
Ширина : 1024 пикселя
Высота : 428 пикселей
Соотношение сторон : 2,40:1
Режим частоты кадров : Постоянный
Частота кадров : 25,000 кадров/сек
Цветовое пространство : YUV
Субдискретизация насыщенности : 4:2:0
Битовая глубина : 8 бит
Тип развёртки : Прогрессивная
Бит/(Пиксели*Кадры) : 0.183
Размер потока : 779 Мбайт (82%)
Библиотека кодирования : x264 core 146 r2538 121396c
Настройки программы : cabac=1 / ref=10 / deblock=1:-3:-3 / analyse=0x3:0x113 / me=umh / subme=11 / psy=1 / psy_rd=1.00:0.20 / mixed_ref=1 / me_range=32 / chroma_me=1 / trellis=2 / 8x8dct=1 / cqm=0 / deadzone=21,11 / fast_pskip=1 / chroma_qp_offset=-3 / threads=24 / lookahead_threads=6 / sliced_threads=0 / nr=0 / decimate=0 / interlaced=0 / bluray_compat=0 / constrained_intra=0 / bframes=12 / b_pyramid=2 / b_adapt=2 / b_bias=0 / direct=3 / weightb=1 / open_gop=0 / weightp=2 / keyint=250 / keyint_min=25 / scenecut=40 / intra_refresh=0 / rc_lookahead=60 / rc=2pass / mbtree=1 / bitrate=2000 / ratetol=1.0 / qcomp=0.60 / qpmin=0 / qpmax=69 / qpstep=4 / cplxblur=20.0 / qblur=0.5 / vbv_maxrate=14000 / vbv_bufsize=14000 / nal_hrd=none / filler=0 / ip_ratio=1.40 / aq=3:1.40
Default : Да
Forced : Нет
Цветовой диапазон : Limited
Основные цвета : BT.709
Характеристики трансфера : BT.709
Коэффициенты матрицы : BT.709

Аудио #1
Идентификатор : 2
Формат : AC-3
Формат/Информация : Audio Coding 3
Расширение режима : CM (complete main)
Параметр Endianness формата : Big
Идентификатор кодека : A_AC3
Продолжительность : 55 м. 44 с.
Вид битрейта : Постоянный
Битрейт : 192 Кбит/сек
Каналы : 2 канала
Расположение каналов : Front: L R
Частота : 48,0 КГц
Частота кадров : 31,250 кадров/сек (1536 spf)
Метод сжатия : С потерями
Размер потока : 76,5 Мбайт (8%)
Заголовок : Без цензуры
Язык : Russian
Default : Да
Forced : Нет

Аудио #2
Идентификатор : 3
Формат : AC-3
Формат/Информация : Audio Coding 3
Расширение режима : CM (complete main)
Параметр Endianness формата : Big
Идентификатор кодека : A_AC3
Продолжительность : 55 м. 44 с.
Вид битрейта : Постоянный
Битрейт : 192 Кбит/сек
Каналы : 2 канала
Расположение каналов : Front: L R
Частота : 48,0 КГц
Частота кадров : 31,250 кадров/сек (1536 spf)
Метод сжатия : С потерями
Размер потока : 76,5 Мбайт (8%)
Заголовок : С цензурой
Язык : Russian
Default : Нет
Forced : Нет

Внимание! Раздача ведётся путём добавления новых серий; при каждом добавлении создfётся новый торрент. Чтобы начать докачку новой серии, пользователям необходимо сделать следующее: (1) остановить скачивание, (2) удалить старый торрент у себя из клиента (старые серии удалять не надо), (3) скачать новый торрент и запустить его у себя в клиенте вместо старого, при этом указать клиенту путь в старую папку куда и должно происходить скачивание новых серий.

Ваш клиент при этом должен произвести хеширование (проверку) старой папки (если не производит сам - помогите ему сделать это), и будет докачивать только те серии которых у вас ещё нет. Старые серии при этом не удаляются, а продолжают раздаваться!

Eсли вы уже удалили старые серии, то предотвратить повторную закачку старых серий можно, отжав галочку в соответсвующих местах при запуске нового торрента.
pb.wtf
!bober100 писал(а):

в релизе две аудио дорожки
аудио 1 без цензуры
аудио 2 с цензурой
По умолчанию дорожка аудио поставлена без цензуры



Скачать Эпидемия через торрент https://img15.lostpic.net/2019/11/14/750810534e642093af6ab05a06ef6ed0.jpg Скачать, смотреть онлайн Эпидемия бесплантно в хорошем качестве Описание: Жёсткая семейная драма на фоне глобальной катастрофы, «Эпидемия» основана на романе Яны Вагнер «Вонгозеро», переведённом на 11 ... 9.6 10 23
Торрент: Зарегистрирован [2020-01-03 01:17] · скачан: 276 раз
Статус: √ проверено
Размер: 6.33 GB
Как cкачать? Как скачать Эпидемия через торрент | UTorrent



Последний раз редактировалось: bober100 (2020-01-03 01:17), всего редактировалось 1 раз

28-11-2019 20:33  

Отключить всю рекламу на сайте

27-12-2019 08:52 Эпидемия Скачать торрент  

Как так 7 серия ведь в марте?pb.wtf



    Дорогой пользователь! Огромная просьба, поблагодарите релизера, оцените раздачу и оставьте свои комментарий, если Вы скачали Эпидемия через торрент бесплатно!
    Комментировать посты могут только пользователи прошедшие не сложную регистрацию
    Показать сообщения:    

    Эпидемия через торрент
    Скачать бесплатно Эпидемия
    Эпидемия скачать торрент
    Эпидемия смотреть онлайн
    Cкачать фильм Эпидемия бесплатно
    Эпидемия скачать торрент в хорошем качестве
    Эпидемия смотреть онлайн бесплатно в хорошем качестве


    Вы не можете начинать темы
    Вы не можете отвечать на сообщения
    Вы не можете редактировать свои сообщения
    Вы не можете удалять свои сообщения
    Вы не можете голосовать в опросах
    Вы не можете прикреплять файлы к сообщениям
    Вы можете скачивать файлы