Anonymous, добрый день, присоединяйтесь к нам в Telegram!, здесь всегда актуальный адрес сайта, оперативная поддержка и многое другое!

>

5.5

iTunes

7.4

iTunes

7.9

iTunes

1

7.7

1 сезон

6.8

iTunes

7.3

1 сезон

13

6.7

1 сезон

8.3

RePack

30

ULTIMATE

pack

9.9

Лицензия

ВАЖНО

ИГРА 18+

pack

7.3

RePack

MK11

7.7

RePack

jed

7.8

RePack

fifa19

8.5

RePack

RDR2

RePack

NEED FOR SPEED™ PAYBACK

4 сезон

9 сезон

Бесстыжие 9 сезон

Все сериалы

все сериалы на PB.wtf

RePack

FAR CRY 5

Anonymous, добрый день, мы катастрофически не успеваем собрать деньги на оплату серверов, помогите нам пожалуйста 5,10,15р., для нас важна любая помощь . В качестве благодарности мы отключим Вам всю рекламу на сайте (укажите свой ник в строку Ваше имя)!

×
  
Magnet ссылка

Эпидемия / Сезон: 1 / Серии: 1-8 из 8 (Павел Костомаров) [2019, Фильм-катастрофа, фэнтези, WEB-DL 1080p] pb.wtf

Эпидемия через торрент pb.wtf

Раздают: 7 [ 133 KB/s ]
Размер: 14.33 GB | Добавлен: 1 год 9 мес. назад | Торрент скачан:1181 раз
Смотреть онлайн Эпидемия | Скачать    Ребята, помогите собрать деньги на оплату серверов!!!

13-11-2019 21:33 Эпидемия Скачать торрент  

Эпидемия
Год выпуска: 2019
Страна: Россия
Студия: ТНТ-PREMIER Studios
Жанр: Фильм-катастрофа, фэнтези
Продолжительность: ~ 00:55:00
Перевод: Не требуется
Субтитры: отсутствуют

Режиссер: Павел Костомаров

rating

В ролях: Кирилл Кяро, Виктория Исакова, Александр Робак, Марьяна Спивак, Савелий Кудряшов, Наталья Земцова, Юрий Кузнецов, Анна Михалкова, Александр Яценко, Игорь Савочкин, Павел Ворожцов, Артём Сучков, Константин Балакирев

Описание: Жёсткая семейная драма на фоне глобальной катастрофы, «Эпидемия» основана на романе Яны Вагнер «Вонгозеро», переведённом на 11 языков. В основе сюжета - неизвестный смертельный вирус, который быстро разрастается до страшной эпидемии. Сергей в компании своей новой возлюбленной и её сына-аутиста, а также бывшей жены, их сына и ещё нескольких примкнувших к ним попутчиков пытается спастись за границами карантина. Где-то далеко, на необитаемом острове в Карелии, стоит охотничий домик, где они смогут начать все с нуля. Но дорога в новую жизнь будет непростой, ведь бегут герои не только от глобальной катастрофы, но и личной семейной драмы.

Качество: WEB-DL 1080p
Формат: MKV

Видео: MPEG4 AVC Video, H264, 16:9, 1920x1080, 25 fps, ~5000 kbps, 0.096 bit/pixel
Аудио: AC3 Dolby Digital, 48.0 kHz, 2/0 (L,R) ch, 192 kbps
скриншот  скриншот  скриншот  скриншот  скриншот  

General
Unique ID : 186665572009889732232714248627433822740 (0x8C6E7B41BFC5E2D2BA30C7492CA0DA14)
Complete name : D:\Epidemia.2019.WEB-DL.(1080p).Getty\Epidemia.e01.2019.WEB-DL.(1080p).Getty.mkv
Format : Matroska
Format version : Version 4 / Version 2
File size : 1.99 GiB
Duration : 55 min 44 s
Overall bit rate mode : Constant
Overall bit rate : 5 122 kb/s
Movie name : Epidemia.e01.2019.WEB-DL.(1080p).Getty
Encoded date : UTC 2019-11-13 21:00:08
Writing application : mkvmerge v7.8.0 ('River Man') 32bit built on Mar 27 2015 16:18:02
Writing library : libebml v1.3.1 + libmatroska v1.4.2

Video
ID : 1
Format : AVC
Format/Info : Advanced Video Codec
Format profile : Baseline@L4
Format settings : 4 Ref Frames
Format settings, CABAC : No
Format settings, ReFrames : 4 frames
Codec ID : V_MPEG4/ISO/AVC
Duration : 55 min 44 s
Bit rate mode : Constant
Bit rate : 5 000 kb/s
Width : 1 920 pixels
Height : 1 080 pixels
Display aspect ratio : 16:9
Frame rate mode : Constant
Frame rate : 25.000 FPS
Standard : PAL
Color space : YUV
Chroma subsampling : 4:2:0
Bit depth : 8 bits
Scan type : Progressive
Bits/(Pixel*Frame) : 0.096
Stream size : 1.92 GiB (96%)
Default : Yes
Forced : No
Color range : Limited
Color primaries : BT.709
Transfer characteristics : BT.709
Matrix coefficients : BT.709

Audio
ID : 2
Format : AC-3
Format/Info : Audio Coding 3
Codec ID : A_AC3
Duration : 55 min 44 s
Bit rate mode : Constant
Bit rate : 192 kb/s
Channel(s) : 2 channels
Channel positions : Front: L R
Sampling rate : 48.0 kHz
Frame rate : 31.250 FPS (1536 SPF)
Bit depth : 16 bits
Compression mode : Lossy
Stream size : 76.5 MiB (4%)
Service kind : Complete Main
Default : Yes
Forced : No

Внимание! Раздача ведётся путём добавления новых серий; при каждом добавлении создfётся новый торрент. Чтобы начать докачку новой серии, пользователям необходимо сделать следующее: (1) остановить скачивание, (2) удалить старый торрент у себя из клиента (старые серии удалять не надо), (3) скачать новый торрент и запустить его у себя в клиенте вместо старого, при этом указать клиенту путь в старую папку куда и должно происходить скачивание новых серий.

Ваш клиент при этом должен произвести хеширование (проверку) старой папки (если не производит сам - помогите ему сделать это), и будет докачивать только те серии которых у вас ещё нет. Старые серии при этом не удаляются, а продолжают раздаваться!

Eсли вы уже удалили старые серии, то предотвратить повторную закачку старых серий можно, отжав галочку в соответсвующих местах при запуске нового торрента.
pb.wtf



Скачать Эпидемия через торрент https://img15.lostpic.net/2019/11/14/750810534e642093af6ab05a06ef6ed0.jpg Скачать, смотреть онлайн Эпидемия бесплантно в хорошем качестве Описание: Жёсткая семейная драма на фоне глобальной катастрофы, «Эпидемия» основана на романе Яны Вагнер «Вонгозеро», переведённом на 11 ... 9.9 10 47
Info! Золотая раздача, скачанное не засчитывается.
Торрент: Зарегистрирован [2020-01-03 01:20] · скачан: 1 181 раз
Статус: √ проверено
Размер: 14.33 GB
Как cкачать? Как скачать Эпидемия через торрент | UTorrent

% Раздел Тема Автор DL S | L
TNT serials [ 4.69 GB ] Эпидемия / Сезон: 1 / Серии: 1-8 из 8 [2019 Фильм-катастрофа WEB-DLRip] bober100 Скачать
3 | 0
TNT serials [ 6.33 GB ] Эпидемия / Сезон: 1 / Серии: 1-8 из 8 [2019 Фильм-катастрофа WEB-DLRip-AVC] bober100 Скачать
1 | 0
TNT serials [ 10.58 GB ] Эпидемия / Сезон: 1 / Серии: 1-8 из 8 [2019 Фильм-катастрофа WEB-DL 720p] bober100 Скачать
4 | 1


Последний раз редактировалось: bober100 (2020-01-03 01:20), всего редактировалось 6 раз(а)

28-11-2019 20:33  

Отключить всю рекламу на сайте

31-10-2020 12:39 Эпидемия Скачать торрент  

Очень не плохой сериал, начало правда показалось слегка затянутым, но в остальном все гуд. Наконец-то у нас в стране начали снимать что-то действительно годное...очень советую к просмотру. Довольно актуально кстати, в виду последних событий в мире. pb.wtf



    Дорогой пользователь! Огромная просьба, поблагодарите релизера, оцените раздачу и оставьте свои комментарий, если Вы скачали Эпидемия через торрент бесплатно!
    Комментировать посты могут только пользователи прошедшие не сложную регистрацию
    Показать сообщения:    

    Эпидемия через торрент
    Скачать бесплатно Эпидемия
    Эпидемия скачать торрент
    Эпидемия смотреть онлайн
    Cкачать фильм Эпидемия бесплатно
    Эпидемия скачать торрент в хорошем качестве
    Эпидемия смотреть онлайн бесплатно в хорошем качестве


    Вы не можете начинать темы
    Вы не можете отвечать на сообщения
    Вы не можете редактировать свои сообщения
    Вы не можете удалять свои сообщения
    Вы не можете голосовать в опросах
    Вы не можете прикреплять файлы к сообщениям
    Вы можете скачивать файлы