Anonymous, доброй ночи, присоединяйтесь к нам в Telegram!, здесь всегда актуальный адрес сайта, оперативная поддержка и многое другое!

>

5.6

iTunes

7.4

MVO

5.7

MVO

1

7.7

1 сезон

6.8

iTunes

7.3

1 сезон

13

6.7

1 сезон

8.3

RePack

30

ULTIMATE

pack

9.9

Лицензия

ВАЖНО

ИГРА 18+

pack

7.3

RePack

MK11

7.7

RePack

jed

7.8

RePack

fifa19

8.5

RePack

RDR2

RePack

NEED FOR SPEED™ PAYBACK

4 сезон

9 сезон

Бесстыжие 9 сезон

Все сериалы

все сериалы на PB.wtf

RePack

FAR CRY 5

Anonymous, доброй ночи, мы катастрофически не успеваем собрать деньги на оплату серверов, помогите нам пожалуйста 5,10,15р., для нас важна любая помощь . В качестве благодарности мы отключим Вам всю рекламу на сайте (укажите свой ник в строку Ваше имя)!

×
  
Magnet ссылка

Эпидемия / Сезон: 1 / Серии: 1-8 из 8 (Павел Костомаров) [2019, Фильм-катастрофа, фэнтези (+18), WEB-DL 720p] pb.wtf

Эпидемия через торрент pb.wtf

Раздают: 3 [ 0 KB/s ]
Размер: 10.58 GB | Добавлен: 1 год 9 мес. назад | Торрент скачан:755 раз
Смотреть онлайн Эпидемия | Скачать    Ребята, помогите собрать деньги на оплату серверов!!!

13-11-2019 21:36 Эпидемия Скачать торрент  

Эпидемия
Год выпуска: 2019
Страна: Россия
Студия: ТНТ-PREMIER Studios
Жанр: Фильм-катастрофа, фэнтези
Продолжительность: ~ 00:55:00
Перевод: Не требуется
Субтитры: отсутствуют

Режиссер: Павел Костомаров

rating

В ролях: Кирилл Кяро, Виктория Исакова, Александр Робак, Марьяна Спивак, Савелий Кудряшов, Наталья Земцова, Юрий Кузнецов, Анна Михалкова, Александр Яценко, Игорь Савочкин, Павел Ворожцов, Артём Сучков, Константин Балакирев

Описание: Жёсткая семейная драма на фоне глобальной катастрофы, «Эпидемия» основана на романе Яны Вагнер «Вонгозеро», переведённом на 11 языков. В основе сюжета - неизвестный смертельный вирус, который быстро разрастается до страшной эпидемии. Сергей в компании своей новой возлюбленной и её сына-аутиста, а также бывшей жены, их сына и ещё нескольких примкнувших к ним попутчиков пытается спастись за границами карантина. Где-то далеко, на необитаемом острове в Карелии, стоит охотничий домик, где они смогут начать все с нуля. Но дорога в новую жизнь будет непростой, ведь бегут герои не только от глобальной катастрофы, но и личной семейной драмы.

Качество: WEB-DL 720p
Формат: MKV

Видео: MPEG-4 AVC, ~ 3500 Кбит/с, 1280x536, 25 кадр/с
Аудио 1: AC3, 48.0 kHz, 2/0 (L,R) ch, 192 kbps - без цензуры
Аудио 2: AC3, 48.0 kHz, 2/0 (L,R) ch, 192 kbps - с цензурой
скриншот  скриншот  скриншот  скриншот  

Общее
Уникальный идентификатор : 176355800563935808586510744259547796607 (0x84ACE44794DC016FBD63CAB5C452947F)
Полное имя : D:\Epidemija.2019.WEB-DL.720p.ExKinoRay\Epidemija.E01.2019.WEB-DL.(720p).ExKinoRay.mkv
Формат : Matroska
Версия формата : Version 2
Размер файла : 1,51 Гбайт
Продолжительность : 55 м. 44 с.
Общий поток : 3886 Кбит/сек
Дата кодирования : UTC 2019-11-20 14:02:13
Программа кодирования : mkvmerge v5.8.0 ('No Sleep / Pillow') built on Sep 2 2012 15:37:04
Библиотека кодирования : libebml v1.2.3 + libmatroska v1.3.0

Видео
Идентификатор : 1
Формат : AVC
Формат/Информация : Advanced Video Codec
Профиль формата : High@L4.1
Параметр CABAC формата : Да
Параметр RefFrames формата : 9 кадров
Идентификатор кодека : V_MPEG4/ISO/AVC
Продолжительность : 55 м. 44 с.
Битрейт : 3425 Кбит/сек
Ширина : 1280 пикселей
Высота : 536 пикселей
Соотношение сторон : 2,40:1
Режим частоты кадров : Постоянный
Частота кадров : 25,000 кадров/сек
Цветовое пространство : YUV
Субдискретизация насыщенности : 4:2:0
Битовая глубина : 8 бит
Тип развёртки : Прогрессивная
Бит/(Пиксели*Кадры) : 0.200
Размер потока : 1,33 Гбайт (88%)
Язык : Russian
Default : Да
Forced : Нет
Цветовой диапазон : Limited
Основные цвета : BT.709
Характеристики трансфера : BT.709
Коэффициенты матрицы : BT.709

Аудио #1
Идентификатор : 2
Формат : AC-3
Формат/Информация : Audio Coding 3
Расширение режима : CM (complete main)
Параметр Endianness формата : Big
Идентификатор кодека : A_AC3
Продолжительность : 55 м. 44 с.
Вид битрейта : Постоянный
Битрейт : 192 Кбит/сек
Каналы : 2 канала
Расположение каналов : Front: L R
Частота : 48,0 КГц
Частота кадров : 31,250 кадров/сек (1536 spf)
Метод сжатия : С потерями
Размер потока : 76,5 Мбайт (5%)
Заголовок : Без цензуры
Язык : Russian
Default : Да
Forced : Нет

Аудио #2
Идентификатор : 3
Формат : AC-3
Формат/Информация : Audio Coding 3
Расширение режима : CM (complete main)
Параметр Endianness формата : Big
Идентификатор кодека : A_AC3
Продолжительность : 55 м. 44 с.
Вид битрейта : Постоянный
Битрейт : 192 Кбит/сек
Каналы : 2 канала
Расположение каналов : Front: L R
Частота : 48,0 КГц
Частота кадров : 31,250 кадров/сек (1536 spf)
Метод сжатия : С потерями
Размер потока : 76,5 Мбайт (5%)
Заголовок : С цензурой
Язык : Russian
Default : Нет
Forced : Нет

Внимание! Раздача ведётся путём добавления новых серий; при каждом добавлении создfётся новый торрент. Чтобы начать докачку новой серии, пользователям необходимо сделать следующее: (1) остановить скачивание, (2) удалить старый торрент у себя из клиента (старые серии удалять не надо), (3) скачать новый торрент и запустить его у себя в клиенте вместо старого, при этом указать клиенту путь в старую папку куда и должно происходить скачивание новых серий.

Ваш клиент при этом должен произвести хеширование (проверку) старой папки (если не производит сам - помогите ему сделать это), и будет докачивать только те серии которых у вас ещё нет. Старые серии при этом не удаляются, а продолжают раздаваться!

Eсли вы уже удалили старые серии, то предотвратить повторную закачку старых серий можно, отжав галочку в соответсвующих местах при запуске нового торрента.
pb.wtf
!bober100 писал(а):

в релизе две аудио дорожки
аудио 1 без цензуры
аудио 2 с цензурой
По умолчанию дорожка аудио поставлена без цензуры



Скачать Эпидемия через торрент https://img15.lostpic.net/2019/11/14/750810534e642093af6ab05a06ef6ed0.jpg Скачать, смотреть онлайн Эпидемия бесплантно в хорошем качестве Описание: Жёсткая семейная драма на фоне глобальной катастрофы, «Эпидемия» основана на романе Яны Вагнер «Вонгозеро», переведённом на 11 ... 9.6 10 35
Info! Золотая раздача, скачанное не засчитывается.
Торрент: Зарегистрирован [2020-01-03 01:19] · скачан: 755 раз
Статус: √ проверено
Размер: 10.58 GB
Как cкачать? Как скачать Эпидемия через торрент | UTorrent

% Раздел Тема Автор DL S | L
TNT serials [ 14.33 GB ] Эпидемия / Сезон: 1 / Серии: 1-8 из 8 [2019 Фильм-катастрофа WEB-DL 1080p] bober100 Скачать
3 | 1


Последний раз редактировалось: bober100 (2020-01-03 01:20), всего редактировалось 13 раз(а)

28-11-2019 20:33  

Отключить всю рекламу на сайте

13-11-2019 22:35 Эпидемия Скачать торрент  

Актуальненько , учитывая , что две школы закрыли на карантин из-за вирусной пневмонии . Зато смеялись , когда в 2014 году по телеку говорили , что пиндосяне на Украине эксперементируют с вирусами в опасной близости от наших границ .pb.wtf



15-11-2019 05:30 Эпидемия Скачать торрент  

крутой сериал. жесткий. маты, мясо, сиськи присутствуют. а даты выхода серий известны?pb.wtf



17-11-2019 20:41 Эпидемия Скачать торрент  

21 ноября 2 серия на офф канале
https://premier.one/show/8970/season/1/video/5c896ddd9a21ab71b89decbff109bf54pb.wtf



    Дорогой пользователь! Огромная просьба, поблагодарите релизера, оцените раздачу и оставьте свои комментарий, если Вы скачали Эпидемия через торрент бесплатно!
    Комментировать посты могут только пользователи прошедшие не сложную регистрацию
    Показать сообщения:    

    Эпидемия через торрент
    Скачать бесплатно Эпидемия
    Эпидемия скачать торрент
    Эпидемия смотреть онлайн
    Cкачать фильм Эпидемия бесплатно
    Эпидемия скачать торрент в хорошем качестве
    Эпидемия смотреть онлайн бесплатно в хорошем качестве


    Вы не можете начинать темы
    Вы не можете отвечать на сообщения
    Вы не можете редактировать свои сообщения
    Вы не можете удалять свои сообщения
    Вы не можете голосовать в опросах
    Вы не можете прикреплять файлы к сообщениям
    Вы можете скачивать файлы