новый адрес
Ссылка на приватное зеркало всего за 1$. Внимание количество ограничено!!!

iTunes

1+1

iTunes

мы

WEB-DL

1

iTunes

Чернобыль

iTunes

Ральф против интернета

Лицензия

ПШазам

Лицензия

Оно 2

Лицензия

30
pack

Вам бонус

ВАЖНО

!!Акция!!

Alien_RageХит недели

RePack

Resident Evil 21

ИГРА 18+

pack

RePack

jed

!!Акция!!

Alien_Rage

RePack

fifa19

RePack

Assassins Creed: Odyssey

RePack

NEED FOR SPEED™ PAYBACK

3 сезон

9 сезон

Бесстыжие 9 сезон

Все сериалы

все сериалы на PB.wtf

RePack

FAR CRY 5
Ребята, катастрофически не хватает 1900р. для оплаты серверов за Октябрь (всвязи с блокировками трафик упал в 3 раза), 1-2р., выручайте.
  

Игра с огнем / Burn (Майк Ган) [2019, Триллер, BDRip-AVC] Dub [iTunes] - ExKinoRay pb.wtf

Игра с огнем через торрент pb.wtf

Раздают: 11 [ 19 KB/s ] Качают: 4 [ 328 KB/s ]
Размер: 1.68 GB | Добавлен: 24 д. назад | Торрент скачан:54 раза
Скачать  

14-11-2019 05:32 Игра с огнем Скачать торрент  

Информация о фильме
Название: Игра с огнем
Оригинальное название: Burn
Год выхода: 2019
Жанр: Триллер
Режиссер: Майк Ган
В ролях: Тильда Кобэм-Херви, Джош Хатчерсон, Сьюки Уотерхаус, Гарри Шам мл., Шайло Фернандес, Джим Девоти, Джон Д. Хикман, Стив Гарфанти, Винтер-Ли Холланд, Уэйн Пайл, Кит Леонард, Анхель Валле мл.



Описание: История развернется вокруг работницы заправки Мелинды, которая страдает от одиночества и завидует своей более успешной коллеге Шейле. Когда мелкий преступник Билли врывается на заправку в надежде украсть немного наличных, Мелинда видит в этом отличный шанс избавиться от опостылевшей напарницы.

Страна: США
Студия: Yale Productions, Hopscotch Pictures, Particular Crowd
Продолжительность: 01:28:21
Перевод: Дублированный | iTunes

Формат: MKV
Качество: BDRip-AVC
Видео: MPEG-4 AVC, 1024x552 (1.85:1), 23.976 fps, 1885 Kbps, 0.139 bit/pixel
Аудио #01: 48 kHz, AC3, 5.1, 384 Kbps | iTunes | RUS |
Аудио #02: 48 kHz, AC3, 5.1, 448 Kbps | Оригинал | ENG |
Субтитры: Русские (Forced, full [Enigma]), английские
General
Unique ID : 239591505076456776168338464209828466973 (0xB43FA5393EFD5B1A8C6835926AA2511D)
Complete name : F:\Burn.2019.BDRip.AVC.ExKinoRay.mkv
Format : Matroska
Format version : Version 2
File size : 1.68 GiB
Duration : 1 h 28 min
Overall bit rate : 2 717 kb/s
Movie name : Burn 2019 from ExKinoRay
Encoded date : UTC 2019-11-14 05:01:26
Writing application : mkvmerge v5.6.0 ('Kenya Kane') built on May 27 2012 16:44:04
Writing library : libebml v1.2.3 + libmatroska v1.3.0

Video
ID : 1
Format : AVC
Format/Info : Advanced Video Codec
Format profile : High@L4.1
Format settings, CABAC : Yes
Format settings, ReFrames : 11 frames
Codec ID : V_MPEG4/ISO/AVC
Duration : 1 h 28 min
Bit rate : 1 885 kb/s
Width : 1 024 pixels
Height : 552 pixels
Display aspect ratio : 1.85:1
Frame rate mode : Constant
Frame rate : 23.976 (23976/1000) FPS
Color space : YUV
Chroma subsampling : 4:2:0
Bit depth : 8 bits
Scan type : Progressive
Bits/(Pixel*Frame) : 0.139
Stream size : 1.13 GiB (67%)
Title : Enigma
Writing library : x264 core 152 r2851 ba24899
Encoding settings : cabac=1 / ref=11 / deblock=1:-2:-2 / analyse=0x3:0x113 / me=umh / subme=10 / psy=1 / psy_rd=1.05:0.10 / mixed_ref=1 / me_range=32 / chroma_me=1 / trellis=2 / 8x8dct=1 / cqm=0 / deadzone=21,11 / fast_pskip=0 / chroma_qp_offset=-3 / threads=12 / lookahead_threads=3 / sliced_threads=0 / nr=0 / decimate=0 / interlaced=0 / bluray_compat=0 / constrained_intra=0 / bframes=10 / b_pyramid=2 / b_adapt=2 / b_bias=0 / direct=3 / weightb=1 / open_gop=0 / weightp=2 / keyint=240 / keyint_min=23 / scenecut=40 / intra_refresh=0 / rc=2pass / mbtree=0 / bitrate=1885 / ratetol=1.0 / qcomp=0.60 / qpmin=0 / qpmax=51 / qpstep=4 / cplxblur=20.0 / qblur=0.5 / ip_ratio=1.40 / pb_ratio=1.30 / aq=1:1.00
Language : English
Default : Yes
Forced : No
Color range : Limited
Color primaries : BT.709
Transfer characteristics : BT.709
Matrix coefficients : BT.709

Audio #1
ID : 2
Format : AC-3
Format/Info : Audio Coding 3
Mode extension : CM (complete main)
Format settings, Endianness : Big
Codec ID : A_AC3
Duration : 1 h 28 min
Bit rate mode : Constant
Bit rate : 384 kb/s
Channel(s) : 6 channels
Channel positions : Front: L C R, Side: L R, LFE
Sampling rate : 48.0 kHz
Frame rate : 31.250 FPS (1536 spf)
Compression mode : Lossy
Stream size : 243 MiB (14%)
Title : iTunes
Language : Russian
Default : Yes
Forced : No

Audio #2
ID : 3
Format : AC-3
Format/Info : Audio Coding 3
Mode extension : CM (complete main)
Format settings, Endianness : Big
Codec ID : A_AC3
Duration : 1 h 28 min
Bit rate mode : Constant
Bit rate : 448 kb/s
Channel(s) : 6 channels
Channel positions : Front: L C R, Side: L R, LFE
Sampling rate : 48.0 kHz
Frame rate : 31.250 FPS (1536 spf)
Compression mode : Lossy
Stream size : 283 MiB (16%)
Language : English
Default : No
Forced : No

Text #1
ID : 4
Format : UTF-8
Codec ID : S_TEXT/UTF8
Codec ID/Info : UTF-8 Plain Text
Title : Forced
Language : Russian
Default : Yes
Forced : No

Text #2
ID : 5
Format : UTF-8
Codec ID : S_TEXT/UTF8
Codec ID/Info : UTF-8 Plain Text
Title : Full (Enigma)
Language : Russian
Default : No
Forced : No

Text #3
ID : 6
Format : UTF-8
Codec ID : S_TEXT/UTF8
Codec ID/Info : UTF-8 Plain Text
Title : Full
Language : English
Default : No
Forced : No

Text #4
ID : 7
Format : UTF-8
Codec ID : S_TEXT/UTF8
Codec ID/Info : UTF-8 Plain Text
Title : SDH
Language : English
Default : No
Forced : No

Menu
00:00:00.000 : en:Глава 01
00:11:26.603 : en:Глава 02
00:24:30.177 : en:Глава 03
00:37:16.609 : en:Глава 04
00:52:20.137 : en:Глава 05
01:05:51.239 : en:Глава 06
01:18:34.543 : en:Глава 07
01:21:29.093 : en:Глава 08


Релиз от:

Автор релиза: pb.wtf



Скачать Игра с огнем через торрент https://img15.lostpic.net/2019/11/07/df3433c8d6d14a7bf24c1428b5e4b567.jpg Скачать фильм Игра с огнем через торрент бесплантно в хорошем качестве Описание: История развернется вокруг работницы заправки Мелинды, которая страдает от одиночества и завидует своей более успешной коллеге ... 10 10 4
Info! Золотая раздача, скачанное не засчитывается.
Торрент: Зарегистрирован [2019-11-14 05:32] · скачан: 54 раз
Статус: √ проверено
Размер: 1.68 GB
Как cкачать? Как скачать Игра с огнем через торрент | qTorrent

% Раздел Тема Автор DL S | L
Фильмы 2019 [DVDrip, WEB-DLRip, HDrip] (DUB, MVO) [ 1.56 GB ] Игра с огнем / Burn [2019 WEB-DLRip-AVC] Dub - ExKinoRay Enigma2010 Скачать
36 | 0

28-11-2019 20:33  

Отключить всю рекламу на сайте

    Дорогой пользователь! Огромная просьба, поблагодарите релизера, оцените раздачу и оставьте свои комментарий, если Вы скачали Игра с огнем через торрент бесплатно! Внесите свою лепту в развитие PiratBit!
    Комментировать посты могут только пользователи прошедшие не сложную регистрацию
    Показать сообщения:    

    Игра с огнем через торрент
    Скачать бесплатно Игра с огнем
    Игра с огнем скачать торрент
    Игра с огнем смотреть онлайн
    Cкачать фильм Игра с огнем бесплатно
    Игра с огнем скачать торрент в хорошем качестве
    Игра с огнем смотреть онлайн бесплатно в хорошем качестве


    Вы не можете начинать темы
    Вы не можете отвечать на сообщения
    Вы не можете редактировать свои сообщения
    Вы не можете удалять свои сообщения
    Вы не можете голосовать в опросах
    Вы не можете прикреплять файлы к сообщениям
    Вы можете скачивать файлы