2 сезон

iTunes

WEBRip

1

2 сезон

iTunes

1 сезон

1 сезон

RePack

30

Новинка

ВАЖНО

ИГРА 18+

pack

RePack

MK11
pack

Легкие деньги

RePack

jed

RePack

fifa19

RePack

RDR2

RePack

NEED FOR SPEED™ PAYBACK

4 сезон

9 сезон

Бесстыжие 9 сезон

Все сериалы

все сериалы на PB.wtf

RePack

FAR CRY 5

Anonymous, добрый день, мы не успеваем собрать деньги на оплату серверов за февраль, помогите нам пожалуйста в это трудное время. В качестве благодарности мы отключим Вам всю рекламу на сайте (укажите свой ник в строку Ваше имя)!

×
  
Magnet ссылка

Жесткое прошлое / Прошлое / The Bygone (Грэм Филлипс, Паркер Филлипс) [2019, Драма, криминал, детектив, WEB-DL 1080p] MVO [iTunes] pb.wtf

Жесткое прошлое через торрент pb.wtf

Раздают: 2 [ 0 KB/s ]
Размер: 3.68 GB | Добавлен: 3 мес. 16 д. назад | Торрент скачан:102 раза
Скачать  

14-11-2019 12:51 Жесткое прошлое Скачать торрент  

Жесткое прошлое | Прошлое | The Bygone
Год выпуска: 2019
Страна: США
Студия: Phillips Pictures, EnE Entertainment
Жанр: Драма, криминал, детектив
Продолжительность: 01:46:21
Перевод: Профессиональный (многоголосый) | iTunes
Субтитры: отсутствуют

Режиссер: Грэм Филлипс, Паркер Филлипс

rating

В ролях: Грэм Филлипс, Шон Хэтоси, Жаклин Тобони, Ричи Костер, Ирен Бедард, Джейми МакШейн, Джо Херсли, Грег Келли, Джейкоб Минг-Трент, Эрин Мари Гаррет

Описание: Когда молодой владелец ранчо заводит отношения с девушкой из индейского племени Лакота, которая проживает на территории ближайшей резервации, её последующее таинственное исчезновение заставляет главного героя раскрывать душераздирающие детали своего прошлого и осознавать всю тяжесть этого бремени в будущем.

Качество: WEB-DL 1080p
Формат: MKV

Видео: 1920x804 (2.40:1), 25.000 fps, x264 ~4569 kbps avg, 0.118 bit/pixel
Аудио: 48 kHz, AC3 Dolby Digital, 3/2 (L,C,R,l,r) + LFE ch, ~384 kbps
скриншот  скриншот  скриншот  скриншот  

Format : Matroska
Format version : Version 4
File size : 3.68 GiB
Duration : 1 h 46 min
Overall bit rate : 4 955 kb/s
Encoded date : UTC 2020-11-12 12:53:08
Writing application : mkvmerge v51.0.0 ('I Wish') 64-bit
Writing library : libebml v1.4.0 + libmatroska v1.6.2
Cover : Yes
Attachments : cover.jpg

Video
ID : 1
Format : AVC
Format/Info : Advanced Video Codec
Format profile : High@L4
Format settings : CABAC / 5 Ref Frames
Format settings, CABAC : Yes
Format settings, Reference : 5 frames
Codec ID : V_MPEG4/ISO/AVC
Duration : 1 h 46 min
Bit rate : 4 569 kb/s
Width : 1 920 pixels
Height : 804 pixels
Display aspect ratio : 2.40:1
Frame rate mode : Constant
Frame rate : 25.000 FPS
Color space : YUV
Chroma subsampling : 4:2:0
Bit depth : 8 bits
Scan type : Progressive
Bits/(Pixel*Frame) : 0.118
Stream size : 3.39 GiB (92%)
Title : The Bygone - ELEKTRI4KA
Language : English
Default : Yes
Forced : No
Color range : Limited
Color primaries : BT.709
Transfer characteristics : BT.709
Matrix coefficients : BT.709

Audio
ID : 2
Format : AC-3
Format/Info : Audio Coding 3
Commercial name : Dolby Digital
Codec ID : A_AC3
Duration : 1 h 46 min
Bit rate mode : Constant
Bit rate : 384 kb/s
Channel(s) : 6 channels
Channel layout : L R C LFE Ls Rs
Sampling rate : 48.0 kHz
Frame rate : 31.250 FPS (1536 SPF)
Compression mode : Lossy
Delay relative to video : -40 ms
Stream size : 292 MiB (8%)
Title : iTunes (RUS)
Language : Russian
Service kind : Complete Main
Default : Yes
Forced : No

Menu
00:00:00.000 : en:Глава 1
00:08:04.960 : en:Глава 2
00:16:53.839 : en:Глава 3
00:25:26.079 : en:Глава 4
00:34:05.637 : en:Глава 5
00:42:22.677 : en:Глава 6
00:50:53.836 : en:Глава 7
00:59:40.955 : en:Глава 8
01:08:26.955 : en:Глава 9
01:16:59.595 : en:Глава 10
01:25:33.874 : en:Глава 11
01:33:47.953 : en:Глава 12

pb.wtf



Скачать Жесткое прошлое через торрент https://i114.fastpic.ru/big/2020/1112/94/b6dfc08ced37c2619ecbbde41a4e1c94.png Скачать фильм Жесткое прошлое через торрент бесплантно в хорошем качестве Описание: Когда молодой владелец ранчо заводит отношения с девушкой из индейского племени Лакота, которая проживает на территории ближайшей ... 10 10 6
Торрент: Зарегистрирован [2020-11-12 13:41] · скачан: 102 раз
Статус: √ проверено
Размер: 3.68 GB
Как cкачать? Как скачать Жесткое прошлое через торрент | UTorrent

% Раздел Тема Автор DL S | L
Фильмы 2019-2020 [DVDrip, WEB-DLRip, HDrip] (DUB, MVO) [ 1.46 GB ] Жесткое прошлое / Прошлое / The Bygone [2019 WEB-DLRip] MVO bober100 Скачать
2 | 0

28-11-2019 20:33  

Отключить всю рекламу на сайте

    Дорогой пользователь! Огромная просьба, поблагодарите релизера, оцените раздачу и оставьте свои комментарий, если Вы скачали Жесткое прошлое через торрент бесплатно! Внесите свою лепту в развитие PiratBit!
    Комментировать посты могут только пользователи прошедшие не сложную регистрацию
    Показать сообщения:    

    Жесткое прошлое через торрент
    Скачать бесплатно Жесткое прошлое
    Жесткое прошлое скачать торрент
    Жесткое прошлое смотреть онлайн
    Cкачать фильм Жесткое прошлое бесплатно
    Жесткое прошлое скачать торрент в хорошем качестве
    Жесткое прошлое смотреть онлайн бесплатно в хорошем качестве


    Вы не можете начинать темы
    Вы не можете отвечать на сообщения
    Вы не можете редактировать свои сообщения
    Вы не можете удалять свои сообщения
    Вы не можете голосовать в опросах
    Вы не можете прикреплять файлы к сообщениям
    Вы можете скачивать файлы