новый адрес
Ссылка на приватное зеркало всего за 1$. Внимание количество ограничено!!!

iTunes

1+1

iTunes

мы

iTunes

1

iTunes

Чернобыль

iTunes

Ральф против интернета

Лицензия

ПШазам

Лицензия

Оно 2

Лицензия

30
pack

Вам бонус

ВАЖНО

!!Акция!!

Alien_RageХит недели

RePack

Resident Evil 21

ИГРА 18+

pack

RePack

jed

!!Акция!!

Alien_Rage

RePack

fifa19

RePack

Assassins Creed: Odyssey

RePack

NEED FOR SPEED™ PAYBACK

3 сезон

9 сезон

Бесстыжие 9 сезон

Все сериалы

все сериалы на PB.wtf

RePack

FAR CRY 5
Ребята, катастрофически не хватает 1900р. для оплаты серверов за Октябрь (всвязи с блокировками трафик упал в 3 раза), 1-2р., выручайте.
  

Офелия / Ophelia (Клэр Маккарти) [2019, Мелодрама, история, BDRip-AVC] DUB [iTunes] - OlLanDGroup pb.wtf

Офелия через торрент pb.wtf

Раздают: 1 [ 0 KB/s ]
Размер: 746 MB | Добавлен: 21 д. назад | Торрент скачан:21 раз
Скачать  

14-11-2019 14:26 Офелия Скачать торрент  

Офелия / Ophelia Год выпуска: 2019
Страна: Великобритания, США
Жанр: Мелодрама, история
Продолжительность: 01:46:22

Перевод: Дублированный | iTunes
Субтитры: Английские (full + SDH), испанские (full)

Режиссер: Клэр Маккарти

rating

В ролях: Дэйзи Ридли, Наоми Уоттс, Том Фелтон, Клайв Оуэн, Джордж МакКэй, Дэйзи Хэд, Себастьян де Соуса, Доминик Мафэм, Девон Террелл, Анна Раст

Описание: Темные времена настали в королевстве. Правитель мертв, а его трон занял самозванец и убийца. Гамлет, законный наследник престола, клянется отомстить за отца. Сердце принца способна смягчить лишь прекрасная Офелия. Ради него она готова оставить двор и пойти против тирана. Но cмогут ли их чувства преодолеть саму смерть?

Качество: BDRip-AVC
Формат: MKV

Видео: 720x302 (2.40:1), 23.976 fps, x264 ~915 kbps avg, 0.176 bit/pixel
Аудио: 48 kHz, HE-AAC, 2 ch, ~64 kbps avg | RUS
General
Unique ID : 196130945255928941933463161324005165167 (0x938D7230435BA3B27CC9F2F6889B086F)
Complete name : D:\OlLanDGroup\iTunes\Ophelia.2018.BDRip(AVC).745Mb.OlLanDGroup.mkv
Format : Matroska
Format version : Version 4
File size : 746 MiB
Duration : 1 h 46 min
Overall bit rate : 981 kb/s
Movie name : Ophelia.2018.BDRip(AVC).745Mb.OlLanDGroup#Skandar#
Encoded date : UTC 2019-11-13 11:40:34
Writing application : mkvmerge v31.0.0 ('Dolores In A Shoestand') 64-bit
Writing library : libebml v1.3.6 + libmatroska v1.4.9

Video
ID : 1
Format : AVC
Format/Info : Advanced Video Codec
Format profile : High@L4.1
Format settings : CABAC / 10 Ref Frames
Format settings, CABAC : Yes
Format settings, ReFrames : 10 frames
Codec ID : V_MPEG4/ISO/AVC
Duration : 1 h 46 min
Bit rate : 915 kb/s
Width : 720 pixels
Height : 302 pixels
Display aspect ratio : 2.40:1
Frame rate mode : Constant
Frame rate : 23.976 (24000/1001) FPS
Color space : YUV
Chroma subsampling : 4:2:0
Bit depth : 8 bits
Scan type : Progressive
Bits/(Pixel*Frame) : 0.176
Stream size : 696 MiB (93%)
Title : Ophelia.2018.BDRip(AVC).745Mb.OlLanDGroup#Skandar#
Writing library : x264 core 146 r2538 121396c
Encoding settings : cabac=1 / ref=10 / deblock=1:-3:-3 / analyse=0x3:0x133 / me=umh / subme=11 / psy=1 / psy_rd=0.97:0.05 / mixed_ref=1 / me_range=48 / chroma_me=1 / trellis=2 / 8x8dct=1 / cqm=0 / deadzone=21,11 / fast_pskip=0 / chroma_qp_offset=-3 / threads=6 / lookahead_threads=1 / sliced_threads=0 / nr=0 / decimate=0 / interlaced=0 / bluray_compat=0 / constrained_intra=0 / bframes=11 / b_pyramid=2 / b_adapt=2 / b_bias=0 / direct=3 / weightb=1 / open_gop=0 / weightp=2 / keyint=240 / keyint_min=23 / scenecut=40 / intra_refresh=0 / rc_lookahead=40 / rc=2pass / mbtree=0 / bitrate=915 / ratetol=1.0 / qcomp=0.60 / qpmin=0 / qpmax=69 / qpstep=4 / cplxblur=20.0 / qblur=0.5 / vbv_maxrate=50000 / vbv_bufsize=62500 / nal_hrd=none / filler=0 / ip_ratio=1.40 / pb_ratio=1.30 / aq=1:1.00
Language : English
Default : Yes
Forced : No

Audio
ID : 2
Format : AAC LC SBR
Format/Info : Advanced Audio Codec Low Complexity with Spectral Band Replication
Commercial name : HE-AAC
Format settings : Explicit
Codec ID : A_AAC-2
Duration : 1 h 46 min
Bit rate : 64.0 kb/s
Channel(s) : 2 channels
Channel layout : L R
Sampling rate : 48.0 kHz
Frame rate : 23.438 FPS (2048 SPF)
Compression mode : Lossy
Delay relative to video : 31 ms
Stream size : 48.7 MiB (7%)
Title : DUB (iTunes)
Language : Russian
Default : Yes
Forced : No

Text #1
ID : 3
Format : UTF-8
Codec ID : S_TEXT/UTF8
Codec ID/Info : UTF-8 Plain Text
Duration : 1 h 43 min
Bit rate : 44 b/s
Count of elements : 1231
Stream size : 33.8 KiB (0%)
Language : English
Default : No
Forced : No

Text #2
ID : 4
Format : UTF-8
Codec ID : S_TEXT/UTF8
Codec ID/Info : UTF-8 Plain Text
Duration : 1 h 45 min
Bit rate : 51 b/s
Count of elements : 1434
Stream size : 39.5 KiB (0%)
Title : SDH
Language : English
Default : No
Forced : No

Text #3
ID : 5
Format : UTF-8
Codec ID : S_TEXT/UTF8
Codec ID/Info : UTF-8 Plain Text
Duration : 1 h 43 min
Bit rate : 50 b/s
Count of elements : 1254
Stream size : 38.5 KiB (0%)
Title : L.A
Language : Spanish
Default : No
Forced : No

Menu
00:00:00.000 : :Chapter 01
00:08:51.656 : :Chapter 02
00:20:56.213 : :Chapter 03
00:29:32.729 : :Chapter 04
00:37:39.382 : :Chapter 05
00:47:28.178 : :Chapter 06
00:56:32.472 : :Chapter 07
01:08:10.294 : :Chapter 08
01:18:16.942 : :Chapter 09
01:26:01.489 : :Chapter 10
01:34:09.894 : :Chapter 11
01:39:57.783 : :Chapter 12
01:46:20.374 : :Chapter 13
Релиз от: pb.wtf



Скачать Офелия через торрент https://d.radikal.ru/d25/1909/af/fc15f9c92b6f.png Скачать фильм Офелия через торрент бесплантно в хорошем качестве Описание: Темные времена настали в королевстве. Правитель мертв, а его трон занял самозванец и убийца. Гамлет, законный наследник престола, ... 5 10 1
Торрент: Зарегистрирован [2019-11-14 14:26] · скачан: 21 раз
Статус: √ проверено
Размер: 746 MB
Как cкачать? Как скачать Офелия через торрент | qTorrent

28-11-2019 20:33  

Отключить всю рекламу на сайте

    Дорогой пользователь! Огромная просьба, поблагодарите релизера, оцените раздачу и оставьте свои комментарий, если Вы скачали Офелия через торрент бесплатно! Внесите свою лепту в развитие PiratBit!
    Комментировать посты могут только пользователи прошедшие не сложную регистрацию
    Показать сообщения:    

    Офелия через торрент
    Скачать бесплатно Офелия
    Офелия скачать торрент
    Офелия смотреть онлайн
    Cкачать фильм Офелия бесплатно
    Офелия скачать торрент в хорошем качестве
    Офелия смотреть онлайн бесплатно в хорошем качестве


    Вы не можете начинать темы
    Вы не можете отвечать на сообщения
    Вы не можете редактировать свои сообщения
    Вы не можете удалять свои сообщения
    Вы не можете голосовать в опросах
    Вы не можете прикреплять файлы к сообщениям
    Вы можете скачивать файлы