новый адрес
Ссылка на приватное зеркало всего за 1$. Внимание количество ограничено!!!

iTunes

1+1

iTunes

мы

WEB-DL

1

iTunes

Чернобыль

iTunes

Ральф против интернета

Лицензия

ПШазам

Лицензия

Оно 2

Лицензия

30
pack

Вам бонус

ВАЖНО

!!Акция!!

Alien_RageХит недели

RePack

Resident Evil 21

ИГРА 18+

pack

RePack

jed

!!Акция!!

Alien_Rage

RePack

fifa19

RePack

Assassins Creed: Odyssey

RePack

NEED FOR SPEED™ PAYBACK

3 сезон

9 сезон

Бесстыжие 9 сезон

Все сериалы

все сериалы на PB.wtf

RePack

FAR CRY 5
Ребята, катастрофически не хватает 1900р. для оплаты серверов за Октябрь (всвязи с блокировками трафик упал в 3 раза), 1-2р., выручайте.
  

После свадьбы / After the Wedding (Барт Фрейндлих) [2019, Драма, BDRip-AVC] DUB [iTunes] - OlLanDGroup pb.wtf

После свадьбы через торрент pb.wtf

Раздают: 3 [ 0 KB/s ]
Размер: 744 MB | Добавлен: 24 д. назад | Торрент скачан:45 раз
Скачать  

14-11-2019 14:31 После свадьбы Скачать торрент  

После свадьбы / After the Wedding Год выпуска: 2019
Страна: США
Жанр: Драма
Продолжительность: 01:52:07

Перевод: Дублированный | iTunes
Субтитры: Русские (Full), английские

Режиссер: Барт Фрейндлих

rating

В ролях: Мишель Уильямс, Джулианна Мур, Билли Крадап, Уилл Чейз, Дорис Маккарти, Эбби Куинн, Эжи Робертсон, Алекс Исола, Алекс Кранмер, Иса Дэвис, Сьюзэн Блэкуэлл

Описание: Изабель посвятила свою жизнь помощи другим. Она узнает, что женщина, возглавляющая многомиллионную корпорацию, готова пожертвовать ей огромную сумму. Их встреча в Нью-Йорке проходит успешно, но все меняется, когда Изабель случайно встречает ее мужа. Она еще не знает, что кто-то начал игру чужими судьбами, в которой правда окажется опаснее лжи...

Качество: BDRip-AVC
Формат: MKV

Видео: 720x300 (2.40:1), 23.976 fps, x264 ~865 kbps avg, 0.167 bit/pixel
Аудио: 48 kHz, HE-AAC, 2 ch, ~64 kbps avg | RUS
General
Unique ID : 84200974309312893742244055803171630881 (0x3F58848D06B32F8FE4ACD4D63D62EF21)
Complete name : D:\OlLanDGroup\iTunes\After.the.Wedding.2019.BDRip(AVC).745Mb.OlLanDGroup.mkv
Format : Matroska
Format version : Version 4
File size : 744 MiB
Duration : 1 h 52 min
Overall bit rate : 928 kb/s
Movie name : After.the.Wedding.2019.BDRip(AVC).745Mb.OlLanDGroup#Skandar#
Encoded date : UTC 2019-11-14 01:13:42
Writing application : mkvmerge v31.0.0 ('Dolores In A Shoestand') 64-bit
Writing library : libebml v1.3.6 + libmatroska v1.4.9

Video
ID : 1
Format : AVC
Format/Info : Advanced Video Codec
Format profile : High@L4.1
Format settings : CABAC / 10 Ref Frames
Format settings, CABAC : Yes
Format settings, ReFrames : 10 frames
Codec ID : V_MPEG4/ISO/AVC
Duration : 1 h 52 min
Bit rate : 865 kb/s
Width : 720 pixels
Height : 300 pixels
Display aspect ratio : 2.40:1
Frame rate mode : Constant
Frame rate : 23.976 (24000/1001) FPS
Color space : YUV
Chroma subsampling : 4:2:0
Bit depth : 8 bits
Scan type : Progressive
Bits/(Pixel*Frame) : 0.167
Stream size : 692 MiB (93%)
Title : After.the.Wedding.2019.BDRip(AVC).745Mb.OlLanDGroup#Skandar#
Writing library : x264 core 146 r2538 121396c
Encoding settings : cabac=1 / ref=10 / deblock=1:-3:-3 / analyse=0x3:0x133 / me=umh / subme=11 / psy=1 / psy_rd=0.97:0.05 / mixed_ref=1 / me_range=48 / chroma_me=1 / trellis=2 / 8x8dct=1 / cqm=0 / deadzone=21,11 / fast_pskip=0 / chroma_qp_offset=-3 / threads=6 / lookahead_threads=1 / sliced_threads=0 / nr=0 / decimate=0 / interlaced=0 / bluray_compat=0 / constrained_intra=0 / bframes=11 / b_pyramid=2 / b_adapt=2 / b_bias=0 / direct=3 / weightb=1 / open_gop=0 / weightp=2 / keyint=240 / keyint_min=23 / scenecut=40 / intra_refresh=0 / rc_lookahead=40 / rc=2pass / mbtree=0 / bitrate=865 / ratetol=1.0 / qcomp=0.60 / qpmin=0 / qpmax=69 / qpstep=4 / cplxblur=20.0 / qblur=0.5 / vbv_maxrate=50000 / vbv_bufsize=62500 / nal_hrd=none / filler=0 / ip_ratio=1.40 / pb_ratio=1.30 / aq=1:1.00
Language : Russian
Default : Yes
Forced : No

Audio
ID : 2
Format : AAC LC SBR
Format/Info : Advanced Audio Codec Low Complexity with Spectral Band Replication
Commercial name : HE-AAC
Format settings : Explicit
Codec ID : A_AAC-2
Duration : 1 h 51 min
Bit rate : 64.0 kb/s
Channel(s) : 2 channels
Channel layout : L R
Sampling rate : 48.0 kHz
Frame rate : 23.438 FPS (2048 SPF)
Compression mode : Lossy
Delay relative to video : 31 ms
Stream size : 51.2 MiB (7%)
Title : DUB (iTunes)
Language : Russian
Default : Yes
Forced : No

Text #1
ID : 3
Format : UTF-8
Codec ID : S_TEXT/UTF8
Codec ID/Info : UTF-8 Plain Text
Duration : 1 h 45 min
Bit rate : 88 b/s
Count of elements : 1356
Stream size : 68.9 KiB (0%)
Title : Full
Language : Russian
Default : No
Forced : No

Text #2
ID : 4
Format : UTF-8
Codec ID : S_TEXT/UTF8
Codec ID/Info : UTF-8 Plain Text
Duration : 1 h 40 min
Bit rate : 57 b/s
Count of elements : 1213
Stream size : 42.0 KiB (0%)
Title : Full
Language : English
Default : No
Forced : No

Menu
00:00:00.000 : en:Chapter 01
00:08:05.026 : en:Chapter 02
00:15:13.996 : en:Chapter 03
00:22:06.992 : en:Chapter 04
00:30:10.642 : en:Chapter 05
00:38:53.581 : en:Chapter 06
00:47:39.690 : en:Chapter 07
00:53:23.074 : en:Chapter 08
01:01:21.219 : en:Chapter 09
01:03:27.011 : en:Chapter 10
01:08:04.497 : en:Chapter 11
01:13:56.056 : en:Chapter 12
01:17:27.517 : en:Chapter 13
01:23:40.306 : en:Chapter 14
01:31:48.461 : en:Chapter 15
01:38:51.967 : en:Chapter 16
Релиз от: pb.wtf



Скачать После свадьбы через торрент https://b.radikal.ru/b15/1911/c8/978af2b00ac8.png Скачать фильм После свадьбы через торрент бесплантно в хорошем качестве Описание: Изабель посвятила свою жизнь помощи другим. Она узнает, что женщина, возглавляющая многомиллионную корпорацию, готова ... 9 10 2
Торрент: Зарегистрирован [2019-11-14 14:31] · скачан: 45 раз
Статус: √ проверено
Размер: 744 MB
Как cкачать? Как скачать После свадьбы через торрент | qTorrent

28-11-2019 20:33  

Отключить всю рекламу на сайте

    Дорогой пользователь! Огромная просьба, поблагодарите релизера, оцените раздачу и оставьте свои комментарий, если Вы скачали После свадьбы через торрент бесплатно! Внесите свою лепту в развитие PiratBit!
    Комментировать посты могут только пользователи прошедшие не сложную регистрацию
    Показать сообщения:    

    После свадьбы через торрент
    Скачать бесплатно После свадьбы
    После свадьбы скачать торрент
    После свадьбы смотреть онлайн
    Cкачать фильм После свадьбы бесплатно
    После свадьбы скачать торрент в хорошем качестве
    После свадьбы смотреть онлайн бесплатно в хорошем качестве


    Вы не можете начинать темы
    Вы не можете отвечать на сообщения
    Вы не можете редактировать свои сообщения
    Вы не можете удалять свои сообщения
    Вы не можете голосовать в опросах
    Вы не можете прикреплять файлы к сообщениям
    Вы можете скачивать файлы