Ссылка на приватное зеркало нашего сайта всего за 1$. Внимание количество ограничено!!!

2 сезон

iTunes

1 сезон

1

iTunes

iTunes

iTunes

1 сезон

RePack

30

ИГРА 18+

pack

ВАЖНО

!!Акция!!

Alien_RageХит недели

RePack

MK11
pack

Забери бонус

RePack

jed

!!Акция!!

Alien_Rage

RePack

fifa19

RePack

Assassins Creed: Odyssey

RePack

NEED FOR SPEED™ PAYBACK

4 сезон

9 сезон

Бесстыжие 9 сезон

Все сериалы

все сериалы на PB.wtf

RePack

FAR CRY 5
  

Побег из джунглей / Boonie Bears: Blast Into the Past (Линь Хуэйда, Дин Лян) [2019, Мультфильм, комедия, фантастика, WEB-DLRip-AVC] DUB [iTunes] - OlLanDGroup pb.wtf

Побег из джунглей через торрент pb.wtf

Раздают: 2 [ 0 KB/s ]
Размер: 746 MB | Добавлен: 11 мес. назад | Торрент скачан:243 раза
Скачать  

14-11-2019 14:44 Побег из джунглей Скачать торрент  

Побег из джунглей / Boonie Bears: Blast Into the Past Год выпуска: 2019
Страна: Китай
Жанр: Мультфильм, комедия, фантастика
Продолжительность: 01:29:28

Перевод: Дублированный | iTunes
Субтитры: отсутствуют

Режиссер: Линь Хуэйда, Дин Лян

rating

В ролях: Чжан Вэй, Чжан Бинцзюнь, Тань Сяо, Сун Цзуэр, Ван Даньцин, Мэн Юйтянь

Описание: Во время экскурсии в древнюю пещеру медведи Брайр и Брэмбл и их друг-дровосек Вик внезапно оказываются в настоящем доисторическом прошлом. Чтобы вернуться назад, им придется совершить большое путешествие во времени и пережить невероятные приключения: столкнуться с огромными хищными птицами, гигантскими черепахами и многочисленными неведомыми и опасными обитателями первобытных джунглей. Но главное - найти новых друзей и дорогу домой!

Качество: WEB-DLRip-AVC
Формат: MKV

Видео: 720x302 (2.40:1), 24 fps, x264 ~1100 kbps avg, 0.211 bit/pixel
Аудио: 48 kHz, HE-AAC, 2 ch, ~64 kbps avg | RUS
General
Unique ID : 45759007087938070026076763740461325663 (0x226CDD3C0DF2F2A809619FD17BBBDD5F)
Complete name : C:\Users\Skandar\Videos\Boonie.Bears.Blast.Into.the Pas.2019.WEB-DLRip(AVC).745Mb.OlLanDGroup.mkv
Format : Matroska
Format version : Version 4
File size : 746 MiB
Duration : 1 h 29 min
Overall bit rate : 1 166 kb/s
Movie name : Boonie.Bears.Blast.Into.the Pas.2019..WEB-DLRip(AVC).745Mb.OlLanDGroup#Skandar#
Encoded date : UTC 2019-11-14 13:57:35
Writing application : mkvmerge v31.0.0 ('Dolores In A Shoestand') 64-bit
Writing library : libebml v1.3.6 + libmatroska v1.4.9

Video
ID : 1
Format : AVC
Format/Info : Advanced Video Codec
Format profile : High@L4.1
Format settings : CABAC / 10 Ref Frames
Format settings, CABAC : Yes
Format settings, ReFrames : 10 frames
Codec ID : V_MPEG4/ISO/AVC
Duration : 1 h 29 min
Bit rate : 1 100 kb/s
Width : 720 pixels
Height : 302 pixels
Display aspect ratio : 2.40:1
Frame rate mode : Constant
Frame rate : 24.000 FPS
Color space : YUV
Chroma subsampling : 4:2:0
Bit depth : 8 bits
Scan type : Progressive
Bits/(Pixel*Frame) : 0.211
Stream size : 704 MiB (94%)
Title : Boonie.Bears.Blast.Into.the Pas.2019..WEB-DLRip(AVC).745Mb.OlLanDGroup#Skandar#
Writing library : x264 core 146 r2538 121396c
Encoding settings : cabac=1 / ref=10 / deblock=1:-3:-3 / analyse=0x3:0x133 / me=umh / subme=11 / psy=1 / psy_rd=0.97:0.05 / mixed_ref=1 / me_range=48 / chroma_me=1 / trellis=2 / 8x8dct=1 / cqm=0 / deadzone=21,11 / fast_pskip=0 / chroma_qp_offset=-3 / threads=6 / lookahead_threads=1 / sliced_threads=0 / nr=0 / decimate=0 / interlaced=0 / bluray_compat=0 / constrained_intra=0 / bframes=11 / b_pyramid=2 / b_adapt=2 / b_bias=0 / direct=3 / weightb=1 / open_gop=0 / weightp=2 / keyint=240 / keyint_min=23 / scenecut=40 / intra_refresh=0 / rc_lookahead=40 / rc=2pass / mbtree=0 / bitrate=1100 / ratetol=1.0 / qcomp=0.60 / qpmin=0 / qpmax=69 / qpstep=4 / cplxblur=20.0 / qblur=0.5 / vbv_maxrate=50000 / vbv_bufsize=62500 / nal_hrd=none / filler=0 / ip_ratio=1.40 / pb_ratio=1.30 / aq=1:1.00
Language : English
Default : Yes
Forced : No

Audio
ID : 2
Format : AAC LC SBR
Format/Info : Advanced Audio Codec Low Complexity with Spectral Band Replication
Commercial name : HE-AAC
Format settings : Explicit
Codec ID : A_AAC-2
Duration : 1 h 29 min
Bit rate : 64.0 kb/s
Channel(s) : 2 channels
Channel layout : L R
Sampling rate : 48.0 kHz
Frame rate : 23.438 FPS (2048 SPF)
Compression mode : Lossy
Delay relative to video : 31 ms
Stream size : 41.0 MiB (5%)
Title : DUB (iTunes)
Language : Russian
Default : Yes
Forced : No

Menu
00:00:00.000 : en:Глава 1
00:08:48.416 : en:Глава 2
00:17:45.374 : en:Глава 3
00:26:24.249 : en:Глава 4
00:35:01.040 : en:Глава 5
00:43:11.415 : en:Глава 6
00:51:37.706 : en:Глава 7
00:59:57.747 : en:Глава 8
01:08:30.830 : en:Глава 9
01:17:00.163 : en:Глава 10
Релиз от: pb.wtf



Скачать Побег из джунглей через торрент https://b.radikal.ru/b34/1911/7b/3a05b271e863.png Скачать фильм Побег из джунглей через торрент бесплантно в хорошем качестве Описание: Во время экскурсии в древнюю пещеру медведи Брайр и Брэмбл и их друг-дровосек Вик внезапно оказываются в настоящем доисторическом ... 10 10 5
Торрент: Зарегистрирован [2019-11-14 14:44] · скачан: 243 раз
Статус: √ проверено
Размер: 746 MB
Как cкачать? Как скачать Побег из джунглей через торрент | qTorrent

28-11-2019 20:33  

Отключить всю рекламу на сайте

15-11-2019 19:28 Побег из джунглей Скачать торрент  

Шикарный мультpb.wtf



    Дорогой пользователь! Огромная просьба, поблагодарите релизера, оцените раздачу и оставьте свои комментарий, если Вы скачали Побег из джунглей через торрент бесплатно! Внесите свою лепту в развитие PiratBit!
    Комментировать посты могут только пользователи прошедшие не сложную регистрацию
    Показать сообщения:    

    Побег из джунглей через торрент
    Скачать бесплатно Побег из джунглей
    Побег из джунглей скачать торрент
    Побег из джунглей смотреть онлайн
    Cкачать фильм Побег из джунглей бесплатно
    Побег из джунглей скачать торрент в хорошем качестве
    Побег из джунглей смотреть онлайн бесплатно в хорошем качестве


    Вы не можете начинать темы
    Вы не можете отвечать на сообщения
    Вы не можете редактировать свои сообщения
    Вы не можете удалять свои сообщения
    Вы не можете голосовать в опросах
    Вы не можете прикреплять файлы к сообщениям
    Вы можете скачивать файлы