2 сезон

iTunes

MVO

1

2 сезон

iTunes

iTunes

1 сезон

RePack

30

Ultimate

ВАЖНО

ИГРА 18+

pack

RePack

MK11
pack

Легкие деньги

RePack

jed

RePack

fifa19

RePack

RDR2

RePack

NEED FOR SPEED™ PAYBACK

4 сезон

9 сезон

Бесстыжие 9 сезон

Все сериалы

все сериалы на PB.wtf

RePack

FAR CRY 5

Anonymous, доброй ночи, мы не успеваем собрать деньги на оплату серверов за декабрь и январь, помогите нам пожалуйста в это трудное время. В качестве благодарности мы отключим Вам всю рекламу на сайте (укажите свой ник в строку Ваше имя)!

×
  
Magnet ссылка

Люси / Lucy (Люк Бессон) [2014, боевик, BDRip - HEVC 1080p 10 bit 60 FPS] Дубляж - [BD CEE] pb.wtf

Люси через торрент pb.wtf

Раздают: 1 [ 0 KB/s ]
Размер: 3.29 GB | Добавлен: 1 год 2 мес. назад | Торрент скачан:241 раз
Скачать  

15-11-2019 16:54 Люси Скачать торрент  

Люси / Lucy
««Она — ключ к тайнам Вселенной»»

Год выпуска: 2014
Страна: Франция
Жанр: боевик,
Продолжительность: 01:29:20
Перевод: Дубляж - [BD CEE]
Субтитры: русские (Full - RUS - BD CEE).
Режиссер: Люк Бессон
В ролях:

Скарлетт Йоханссон (Lucy), Морган Фриман (Professor Norman), Чхве Мин-сик (Mr. Jang), Амр Вакед (Pierre Del Rio), Джулиан Райнд-Татт (The Limey), Йохан Филип Асбек (Richard), Анали Типтон (Caroline), Николас Фонгфет (Jii), Ян Оливер Шрёдер (German Mule), Лука Анджелетти (Italian Mule), Луи Брабант (Professor), Пьер Граммон (Professor)
Описание:
Еще вчера она была просто сексапильной блондинкой, а сегодня - самое опасное и смертоносное создание на планете со сверхъестественными способностями и интеллектом. То, что совсем недавно лучшие умы мира считали фантастической теорией, для нее стало реальностью. И теперь из добычи она превратится в охотницу.
Мировая премьера: 25 июля 2014

Качество: BDRip 1080p Rip by DD2D3
Исходник: BDRemux by ExKinoRay
Формат: MKV
Видео: V_MPEGH/ISO/HEVC, 1920x804 (2.40:1), 4503 kbps, 59,940 fps, 0,049 bpp
Аудио: русский / DTS / 5.1 / 48 kHz / 768 kbps / 24 bit ||
Навигация по главам: есть


General
Unique ID : 174798769870224762178130989065150824687 (0x838104BD4D303C93A345575EF58E80EF)
Complete name : D:\Люси - Lucy (2014) BDRip - HEVC 1080p 10 bit 60 FPS.mkv
Format : Matroska
Format version : Version 4
File size : 3.29 GiB
Duration : 1 h 29 min
Overall bit rate : 5 276 kb/s
Movie name : Rip by DD2D3
Encoded date : UTC 2019-11-15 16:18:07
Writing application : mkvmerge v10.0.0 ('To Drown In You') 32bit
Writing library : libebml v1.3.4 + libmatroska v1.4.5
Attachments : poster

Video
ID : 1
Format : HEVC
Format/Info : High Efficiency Video Coding
Format profile : Main 10@L4.1@Main
Codec ID : V_MPEGH/ISO/HEVC
Duration : 1 h 29 min
Bit rate : 4 503 kb/s
Width : 1 920 pixels
Height : 804 pixels
Display aspect ratio : 2.40:1
Frame rate mode : Constant
Frame rate : 59.940 (60000/1001) FPS
Color space : YUV
Chroma subsampling : 4:2:0
Bit depth : 10 bits
Bits/(Pixel*Frame) : 0.049
Stream size : 2.81 GiB (85%)
Writing library : x265 2.3+33-0b7d54dbb71a87a0:[Windows][MSVC 1800][64 bit] 10bit: KG7x [x265.ru]
Encoding settings : cpuid=1173503 / frame-threads=2 / numa-pools=4 / wpp / no-pmode / no-pme / no-psnr / no-ssim / log-level=2 / input-csp=1 / input-res=1920x804 / interlace=0 / total-frames=321298 / level-idc=41 / high-tier=1 / uhd-bd=0 / ref=3 / no-allow-non-conformance / no-repeat-headers / annexb / no-aud / no-hrd / info / hash=0 / no-temporal-layers / open-gop / min-keyint=25 / keyint=250 / bframes=4 / b-adapt=2 / b-pyramid / bframe-bias=0 / rc-lookahead=20 / lookahead-slices=5 / scenecut=40 / no-intra-refresh / ctu=64 / min-cu-size=8 / no-rect / no-amp / max-tu-size=32 / tu-inter-depth=1 / tu-intra-depth=1 / limit-tu=0 / rdoq-level=0 / dynamic-rd=0.00 / no-ssim-rd / signhide / no-tskip / nr-intra=0 / nr-inter=0 / no-constrained-intra / strong-intra-smoothing / max-merge=2 / limit-refs=3 / no-limit-modes / me=1 / subme=2 / merange=57 / temporal-mvp / weightp / no-weightb / no-analyze-src-pics / deblock=0:0 / no-sao / no-sao-non-deblock / rd=3 / no-early-skip / no-rskip / no-fast-intra / no-tskip-fast / no-cu-lossless / no-b-intra / rdpenalty=0 / psy-rd=4.00 / psy-rdoq=0.00 / no-rd-refine / analysis-mode=0 / no-lossless / cbqpoffs=0 / crqpoffs=0 / rc=abr / bitrate=4500 / qcomp=0.60 / qpstep=1 / stats-write=0 / stats-read=2 / cplxblur=20.0 / qblur=0.5 / ipratio=1.10 / pbratio=1.00 / aq-mode=0 / aq-strength=0.00 / no-cutree / zone-count=0 / no-strict-cbr / qg-size=64 / rc-grain / qpmax=69 / qpmin=0 / sar=1 / overscan=0 / videoformat=5 / range=0 / colorprim=2 / transfer=2 / colormatrix=2 / chromaloc=0 / display-window=0 / max-cll=0,0 / min-luma=0 / max-luma=1023 / log2-max-poc-lsb=8 / vui-timing-info / vui-hrd-info / slices=1 / opt-qp-pps / opt-ref-list-length-pps / no-multi-pass-opt-rps / scenecut-bias=0.05 / no-opt-cu-delta-qp / no-aq-motion / no-hdr / no-hdr-opt / refine-level=5 / no-limit-sao
Default : Yes
Forced : No

Audio
ID : 2
Format : DTS
Format/Info : Digital Theater Systems
Codec ID : A_DTS
Duration : 1 h 29 min
Bit rate mode : Constant
Bit rate : 768 kb/s
Channel(s) : 6 channels
Channel layout : C L R Ls Rs LFE
Sampling rate : 48.0 kHz
Frame rate : 93.750 FPS (512 SPF)
Bit depth : 24 bits
Compression mode : Lossy
Stream size : 491 MiB (15%)
Title : DUB - RUS - BD CEE - DTS, 48 KHz, 6 ch, 768 kbps, 24 bit
Language : Russian
Default : Yes
Forced : Yes

Text
ID : 3
Format : UTF-8
Codec ID : S_TEXT/UTF8
Codec ID/Info : UTF-8 Plain Text
Duration : 1 h 21 min
Bit rate : 56 b/s
Count of elements : 773
Stream size : 33.7 KiB (0%)
Title : Full - RUS - BD CEE
Language : Russian
Default : No
Forced : No

Menu
00:00:00.000 : en:Chapter 01
00:05:26.367 : en:Chapter 02
00:08:38.267 : en:Chapter 03
00:15:45.569 : en:Chapter 04
00:21:36.837 : en:Chapter 05
00:26:05.397 : en:Chapter 06
00:30:27.534 : en:Chapter 07
00:37:36.254 : en:Chapter 08
00:41:43.459 : en:Chapter 09
00:47:32.558 : en:Chapter 10
00:50:10.716 : en:Chapter 11
00:55:32.495 : en:Chapter 12
00:59:36.072 : en:Chapter 13
01:02:08.099 : en:Chapter 14
01:04:51.345 : en:Chapter 15
01:07:14.030 : en:Chapter 16
01:09:55.816 : en:Chapter 17
01:12:26.133 : en:Chapter 18
01:18:50.475 : en:Chapter 19
01:22:31.988 : en:Chapter 20
скриншот  скриншот  скриншот  скриншот  

© Оформление by DD2D3 pb.wtf



Скачать Люси через торрент https://funkyimg.com/i/2YKFh.jpg Скачать фильм Люси через торрент бесплантно в хорошем качестве Описание: Еще вчера она была просто сексапильной блондинкой, а сегодня - самое опасное и смертоносное создание на планете со ... 9.5 10 19
Info! Золотая раздача, скачанное не засчитывается.
Торрент: Зарегистрирован [2019-11-15 16:54] · скачан: 241 раз
Статус: √ проверено
Размер: 3.29 GB
Как cкачать? Как скачать Люси через торрент | UTorrent

% Раздел Тема Автор DL S | L
Фильмы с авторской озвучкой [ 2.6 GB ] Люси / Lucy [2014 BDRip-AVC] 2x[AVO] killermax2013 Скачать
1 | 0
Фильмы (WEB-DL 720p, 1080p) [ 6.81 GB ] Люси в небесах / Lucy in the Sky [2019 биография WEB-DL 1080p] MVO bober100 Скачать
1 | 0
T Фильмы (мультфильмы) cо спонсором показа (Новинки AVI/MKV) [ 5.07 GB ] Люси в небесах / Lucy in the Sky [2019 WEB-DL 720p] MVO [AlphaProject] bober100 Скачать
1 | 0
Фильмы 2019-2020 [DVDrip, WEB-DLRip, HDrip] (DUB, MVO) [ 2.18 GB ] Люси в небесах / Lucy in the Sky [2019 биография WEB-DLRip] MVO bober100 Скачать
1 | 0
Фильмы 2019-2020 [DVDrip, WEB-DLRip, HDrip] (DUB, MVO) [ 1.46 GB ] Люси в небесах / Lucy in the Sky [2019 биография WEB-DLRip] MVO bober100 Скачать
1 | 0
T Фильмы [HD 720p, 1080p] (Хороший звук DUB, MVO) [ 3.89 GB ] О Люси! / Oh Lucy! [2018 WEB-DL 1080p] [MVO] killermax2013 Скачать
1 | 0
Фильмы [HD 720p, 1080p] (Хороший звук DUB, MVO) [ 3.95 GB ] Люси / Lucy [2014 BDRip 1080p HEVC ] Мичман37 Скачать
1 | 0

28-11-2019 20:33  

Отключить всю рекламу на сайте


15-11-2019 19:38 Люси Скачать торрент  

Люк Бессон - тупой масон .pb.wtf



17-11-2019 09:55 Люси Скачать торрент  

У меня у одного рассинхрон?pb.wtf



17-11-2019 16:19 Люси Скачать торрент  

У меня рассинхрона нетуpb.wtf



16-06-2020 21:59 Люси Скачать торрент  

Спасибо!
Редкость особенно для 60FPS!
Отличное качество/размер/разрешение!

Помогу с раздачей!pb.wtf



    Дорогой пользователь! Огромная просьба, поблагодарите релизера, оцените раздачу и оставьте свои комментарий, если Вы скачали Люси через торрент бесплатно! Внесите свою лепту в развитие PiratBit!
    Комментировать посты могут только пользователи прошедшие не сложную регистрацию
    Показать сообщения:    

    Люси через торрент
    Скачать бесплатно Люси
    Люси скачать торрент
    Люси смотреть онлайн
    Cкачать фильм Люси бесплатно
    Люси скачать торрент в хорошем качестве
    Люси смотреть онлайн бесплатно в хорошем качестве


    Вы не можете начинать темы
    Вы не можете отвечать на сообщения
    Вы не можете редактировать свои сообщения
    Вы не можете удалять свои сообщения
    Вы не можете голосовать в опросах
    Вы не можете прикреплять файлы к сообщениям
    Вы можете скачивать файлы