Ссылка на приватное зеркало нашего сайта всего за 1$. Внимание количество ограничено!!!

2 сезон

iTunes

1 сезон

1

iTunes

iTunes

iTunes

1 сезон

RePack

30

ИГРА 18+

pack

ВАЖНО

!!Акция!!

Alien_RageХит недели

RePack

MK11
pack

Забери бонус

RePack

jed

!!Акция!!

Alien_Rage

RePack

fifa19

RePack

Assassins Creed: Odyssey

RePack

NEED FOR SPEED™ PAYBACK

4 сезон

9 сезон

Бесстыжие 9 сезон

Все сериалы

все сериалы на PB.wtf

RePack

FAR CRY 5
  

Мылодрама / Сезон: 2 / Серии: 1-8 из 8 (Илья Куликов) [2019, Комедия, WEB-DL 1080p] [Без цензуры] pb.wtf

Мылодрама через торрент pb.wtf

Раздают: 2 [ 163 KB/s ]
Размер: 7.34 GB | Добавлен: 10 мес. назад | Торрент скачан:1041 раз
Скачать  

15-11-2019 21:04 Мылодрама Скачать торрент  

Мылодрама
Год выпуска: 2019
Страна: Россия
Жанр: Комедия
Продолжительность: ~ 00:25:00
Субтитры: отсутствуют

+18!!! Присутствует ненормативная лексика!

Режиссер: Илья Куликов



В ролях: Сергей Бурунов, Григорий Калинин, Маруся Климова, Юрий Грубник, Ростислав Бершауэр, Анна Котова-Дерябина, Анна Миронова (II), Ольга Дибцева, Нина Гогаева, Павел Мисаилов

Описание: Как только генеральным директором телеканала ТСВ стал бывший работник бензоколонки Владислав Поляков, дела неожиданно пошли в гору. Придуманный им сериал «Кровавые шлюхи в яме» приобрел огромную популярность, а создававшая его команда стала одной семьёй. Неожиданный успех не входил в планы владельца тридцати процентов акций Андрея Симонова, он-то как раз рассчитывал на провал, который позволил бы ему приобрести оставшуюся долю. Симонову остается только одно: подкупить Влада, чтобы тот ушел с поста. Но не тут-то было: владелец основного пакета акций Лариса Романова уверена, что Влад — гений, и не может позволить ему уйти. Чтобы понять, в чем секрет его успеха, она решает подобраться к нему поближе. Тем временем грядет второй сезон «Кровавых шлюх в яме», и команда сериала собирается вновь. Влад огорошивает всех новостью: им предстоит делать не только второй сезон, но и праймовое ток-шоу, стендап, программу про сверхъестественное, а также новости.

Качество: WEB-DL 1080p
Формат: MKV

Видео: MPEG-4 AVC, ~ 4500 Кбит/с, 1920x800
Аудио: AC3, 2 ch, 192 Кбит/с
скриншот  скриншот  скриншот  скриншот  скриншот  

General
Unique ID: 226922207938174588314460481693785318581 (0xAAB7A0A5E6D8C670B97507BB0DCCE4B5)
Complete name: D:\Mylodrama.S02.2019.WEB-DL.(1080p).Getty\Mylodrama.s02e01.2019.WEB-DL.(1080p).Getty.mkv
Format: Matroska
Format version: Version 4 / Version 2
File size: 892 MiB
Duration: 26 min 41 s
Overall bit rate mode: Variable
Overall bit rate: 4 676 kb/s
Movie name: Mylodrama.s02e01.2019.WEB-DL.(1080p).Getty
Encoded date: UTC 2019-11-13 20:07:06
Writing application: mkvmerge v7.8.0 ('River Man') 32bit built on Mar 27 2015 16:18:02
Writing library: libebml v1.3.1 + libmatroska v1.4.2

Video
ID: 1
Format: AVC
Format/Info: Advanced Video Codec
Format profile: High@L4
Format settings: CABAC / 1 Ref Frames
Format settings, CABAC: Yes
Format settings, ReFrames: 1 frame
Format settings, GOP: M=1, N=50
Codec ID: V_MPEG4/ISO/AVC
Duration: 26 min 41 s
Bit rate mode: Variable
Bit rate: 4 500 kb/s
Width: 1 920 pixels
Height: 800 pixels
Display aspect ratio: 2.40:1
Frame rate mode: Constant
Frame rate: 25.000 FPS
Color space: YUV
Chroma subsampling: 4:2:0
Bit depth: 8 bits
Scan type: Progressive
Bits/(Pixel*Frame): 0.117
Stream size: 855 MiB (96%)
Default: Yes
Forced: No

Audio
ID: 2
Format: AC-3
Format/Info: Audio Coding 3
Codec ID: A_AC3
Duration: 26 min 41 s
Bit rate mode: Constant
Bit rate: 192 kb/s
Channel(s): 2 channels
Channel positions: Front: L R
Sampling rate: 48.0 kHz
Frame rate: 31.250 FPS (1536 SPF)
Bit depth: 16 bits
Compression mode: Lossy
Stream size: 36.6 MiB (4%)
Service kind: Complete Main
Default: Yes
Forced: No

Внимание! Раздача ведётся путём добавления новых серий; при каждом добавлении создfётся новый торрент. Чтобы начать докачку новой серии, пользователям необходимо сделать следующее: (1) остановить скачивание, (2) удалить старый торрент у себя из клиента (старые серии удалять не надо), (3) скачать новый торрент и запустить его у себя в клиенте вместо старого, при этом указать клиенту путь в старую папку куда и должно происходить скачивание новых серий.

Ваш клиент при этом должен произвести хеширование (проверку) старой папки (если не производит сам - помогите ему сделать это), и будет докачивать только те серии которых у вас ещё нет. Старые серии при этом не удаляются, а продолжают раздаваться!

Eсли вы уже удалили старые серии, то предотвратить повторную закачку старых серий можно, отжав галочку в соответсвующих местах при запуске нового торрента.
pb.wtf



Скачать Мылодрама через торрент https://img16.lostpic.net/2019/11/11/b8bb0c6dc3f9a11be63136ffad68e595.jpg Скачать фильм Мылодрама через торрент бесплантно в хорошем качестве Описание: Как только генеральным директором телеканала ТСВ стал бывший работник бензоколонки Владислав Поляков, дела неожиданно пошли в ... 9.9 10 39
Info! Золотая раздача, скачанное не засчитывается.
Торрент: Зарегистрирован [2019-11-22 20:53] · скачан: 1 041 раз
Статус: √ проверено
Размер: 7.34 GB
Как cкачать? Как скачать Мылодрама через торрент | qTorrent

% Раздел Тема Автор DL S | L
Наши сериалы [ 2.75 GB ] Мыло / Сезон: 2 / Серии: 1-8 из 8 [2019 WEB-DLRip] [Без цензуры] bober100 Скачать
3 | 0
Наши сериалы [ 5.49 GB ] Мыло / Сезон: 2 / Серии: 1-8 из 8 + Фильм о сериале [2019 WEB-DL 720p] bober100 Скачать
1 | 0
Наши сериалы [ 3.34 GB ] Мыло / Сезон: 2 / Серии: 1-8 из 8 + Фильм о сериале [2019 WEBRip-AVC] bober100 Скачать
1 | 0
Наши сериалы [ 3.11 GB ] Мыло / Сезон: 2 / Серии: 1-8 из 8 + Фильм о Фильме [2019 SATRip] bober100 Скачать
2 | 8
Наши сериалы [ 3.11 GB ] Мыло / Сезон: 2 / Серии: 1-8 из 8 + Фильм о сериале [2019 WEB-DLRip] bober100 Скачать
1 | 1


Последний раз редактировалось: bober100 (2019-11-22 20:53), всего редактировалось 3 раз(а)

28-11-2019 20:33  

Отключить всю рекламу на сайте

02-12-2019 16:25 Мылодрама Скачать торрент  

Класс!pb.wtf



    Дорогой пользователь! Огромная просьба, поблагодарите релизера, оцените раздачу и оставьте свои комментарий, если Вы скачали Мылодрама через торрент бесплатно! Внесите свою лепту в развитие PiratBit!
    Комментировать посты могут только пользователи прошедшие не сложную регистрацию
    Показать сообщения:    

    Мылодрама через торрент
    Скачать бесплатно Мылодрама
    Мылодрама скачать торрент
    Мылодрама смотреть онлайн
    Cкачать фильм Мылодрама бесплатно
    Мылодрама скачать торрент в хорошем качестве
    Мылодрама смотреть онлайн бесплатно в хорошем качестве


    Вы не можете начинать темы
    Вы не можете отвечать на сообщения
    Вы не можете редактировать свои сообщения
    Вы не можете удалять свои сообщения
    Вы не можете голосовать в опросах
    Вы не можете прикреплять файлы к сообщениям
    Вы можете скачивать файлы