Ссылка на приватное зеркало нашего сайта всего за 1$. Внимание количество ограничено!!!

2 сезон

iTunes

1 сезон

1

iTunes

iTunes

iTunes

1 сезон

RePack

30

ИГРА 18+

pack

ВАЖНО

!!Акция!!

Alien_RageХит недели

RePack

MK11
pack

Забери бонус

RePack

jed

!!Акция!!

Alien_Rage

RePack

fifa19

RePack

Assassins Creed: Odyssey

RePack

NEED FOR SPEED™ PAYBACK

4 сезон

9 сезон

Бесстыжие 9 сезон

Все сериалы

все сериалы на PB.wtf

RePack

FAR CRY 5
  

Тело Дженнифер (Театральная версия) / Jennifer's Body (Theatrical Cut) (Карин Кусама / Karyn Kusama) [2009 г., Комедия, ужасы, триллер, BDRip 1080p] pb.wtf

Тело Дженнифер через торрент pb.wtf

Размер: 8.75 GB | Добавлен: 9 лет 9 мес. назад | Торрент скачан:54 раза
Скачать  

22-01-2011 05:09 Тело Дженнифер Скачать торрент  

Тело Дженнифер / Jennifer's Body«У нее есть вкус на плохих парней»
Год выпуска: 2009
Страна: США
Жанр: Комедия, мелодрама
Продолжительность: 01:40:38

  • Перевод: Профессиональный (полное дублирование)
  • Оригинальная аудиодорожка: Английская
  • Русские субтитры: есть

Режиссер: Карин Кусама / Karyn Kusama
В ролях: Меган Фокс, Аманда Сэйфрид, Джонни Симмонс, Адам Броди, Сэл Кортез, Райан Ливайн, Хуан Ридингер, Колин Аски, Крис Прэтт, Джуно Радделл
Описание: Главная героиня — участница команды болельщиц — в один день становится одержима и начинает убивать юношей небольшого города, в котором живет. Лучшая подруга должна найти способ остановить адски разбушевавшуюся чирлидершу.


  • Тип релиза: BDRip
  • Контейнер: MKV
  • Видео кодек: h.264 | Аудио кодек: DTS
  • Видео: 1920x1036, 9966 kbps, 23.976 fps
  • Аудио 1: Русский DTS 5.1, 48 KHz, 768 kbps
  • Аудио 2: Английский DTS 5.1, 48 KHz, 1536 kbps
  • Субтитры: Русские, английские

General
Complete name : Jennifers Body.2009.BD.Rip.1080p.h264.Rus.Eng.mkv
Format : Matroska
File size : 8.75 GiB
Duration : 1h 42mn
Overall bit rate : 12.2 Mbps
Encoded date : UTC 2009-12-06 09:28:39
Writing application : mkvmerge v2.9.9 ('Tutu') built on Nov 25 2009 21:13:32
Writing library : libebml v0.7.9 + libmatroska v0.8.1

Video
ID : 1
Format : AVC
Format/Info : Advanced Video Codec
Format profile : High@L4.1
Format settings, CABAC : Yes
Format settings, ReFrames : 4 frames
Muxing mode : Container profile=Unknown@4.1
Codec ID : V_MPEG4/ISO/AVC
Duration : 1h 42mn
Bit rate : 9 724 Kbps
Nominal bit rate : 9 966 Kbps
Width : 1 920 pixels
Height : 1 036 pixels
Display aspect ratio : 1.853
Frame rate : 23.976 fps
Resolution : 24 bits
Colorimetry : 4:2:0
Scan type : Progressive
Bits/(Pixel*Frame) : 0.204
Stream size : 6.95 GiB (79%)
Writing library : x264 core 79 r1352M d487de4
Encoding settings : cabac=1 / ref=4 / deblock=1:-3:-3 / analyse=0x3:0x113 / me=umh / subme=10 / psy=1 / psy_rd=1.0:0.0 / mixed_ref=1 / me_range=32 / chroma_me=1 / trellis=2 / 8x8dct=1 / cqm=0 / deadzone=21,11 / chroma_qp_offset=-2 / threads=6 / nr=0 / decimate=0 / mbaff=0 / constrained_intra=0 / bframes=6 / b_pyramid=2 / b_adapt=2 / b_bias=0 / direct=3 / wpredb=1 / wpredp=2 / keyint=240 / keyint_min=24 / scenecut=40 / rc=2pass / mbtree=0 / bitrate=9966 / ratetol=1.0 / qcomp=0.60 / qpmin=10 / qpmax=51 / qpstep=4 / cplxblur=20.0 / qblur=0.5 / ip_ratio=1.40 / pb_ratio=1.30 / aq=1:0.80 / pulldown=0 / nal_hrd=0
Language : English

Audio #1
ID : 2
Format : DTS
Format/Info : Digital Theater Systems
Codec ID : A_DTS
Duration : 1h 42mn
Bit rate mode : Constant
Bit rate : 755 Kbps
Channel(s) : 6 channels
Channel positions : Front: L C R, Surround: L R, LFE
Sampling rate : 48.0 KHz
Resolution : 24 bits
Stream size : 552 MiB (6%)
Title : DTS 5.1 768 kbps
Language : Russian

Audio #2
ID : 3
Format : DTS
Format/Info : Digital Theater Systems
Codec ID : A_DTS
Duration : 1h 42mn
Bit rate mode : Constant
Bit rate : 1 510 Kbps
Channel(s) : 6 channels
Channel positions : Front: L C R, Surround: L R, LFE
Sampling rate : 48.0 KHz
Resolution : 24 bits
Stream size : 1.08 GiB (12%)
Title : DTS 5.1 1536 kbps
Language : English

Text #1
ID : 4
Format : UTF-8
Codec ID : S_TEXT/UTF8
Codec ID/Info : UTF-8 Plain Text
Language : Russian

Text #2
ID : 5
Format : UTF-8
Codec ID : S_TEXT/UTF8
Codec ID/Info : UTF-8 Plain Text
Language : English

Menu
00:00:00.000 : en:00:00:00.000
00:04:55.128 : en:00:04:55.128
00:09:51.758 : en:00:09:51.758
00:14:44.509 : en:00:14:44.509
00:19:32.296 : en:00:19:32.296
00:22:50.035 : en:00:22:50.035
00:25:20.102 : en:00:25:20.102
00:30:47.012 : en:00:30:47.012
00:34:16.721 : en:00:34:16.721
00:36:25.350 : en:00:36:25.350
00:40:03.735 : en:00:40:03.735
00:43:41.118 : en:00:43:41.118
00:46:07.098 : en:00:46:07.098
00:50:24.271 : en:00:50:24.271
00:58:04.272 : en:00:58:04.272
01:05:20.875 : en:01:05:20.875
01:09:21.449 : en:01:09:21.449
01:13:58.058 : en:01:13:58.058
01:16:26.665 : en:01:16:26.665
01:21:47.486 : en:01:21:47.486
01:26:20.967 : en:01:26:20.967
01:29:12.680 : en:01:29:12.680
01:33:10.334 : en:01:33:10.334
01:36:02.173 : en:01:36:02.173

pb.wtf



Скачать Тело Дженнифер через торрент http://lostpic.net/images/6c1b3630592af828140929526eb9f57c.jpg Скачать фильм Тело Дженнифер через торрент бесплантно в хорошем качестве Описание: Главная героиня — участница команды болельщиц — в один день становится одержима и начинает убивать юношей небольшого города, в ... 8.3 10 3
Info! Золотая раздача, скачанное не засчитывается.
Торрент: Зарегистрирован [2011-01-22 05:09] · скачан: 54 раз
Статус: √ проверено
Размер: 8.75 GB
Как cкачать? Как скачать Тело Дженнифер через торрент | qTorrent

% Раздел Тема Автор DL S | L
Фильмы 2009 [ 2.05 GB ] Тело Дженнифер / Jennifer's Body [2009 HDRip + Оригинал] KaZtOrChAnIn Скачать
1 | 0
Фильмы [HD 720p, 1080p] (Хороший звук DUB, MVO) [ 5.75 GB ] Тело Дженнифер / Jennifer's Body [2009 BDRip 720p DUB + Оригинал отдельно] Sудья Скачать
1 | 0
Фильмы 2009 [ 2.18 GB ] Тело Дженнифер / Jennifer's Body [2009 BDRip-AVC] [Extended Cut] Dassis Скачать
1 | 0
Фильмы 2009 [ 744 MB ] Тело Дженнифер / Jennifer's Body [Расширенная версия / Unrated Cut] [2009 HDRip] DUB -=BIGBOSS=- Скачать
1 | 0
Фильмы 2009 [ 1.46 GB ] Тело Дженнифер / Jennifer's Body [2009 DVDRip] Anonymous Скачать
1 | 0
Фильмы 2009 [ 2.18 GB ] Тело Дженнифер / Jennifer's Body [2009 ] aspace Скачать
1 | 0


Последний раз редактировалось: diletant (2011-01-22 09:47), всего редактировалось 1 раз

28-11-2019 20:33  

Отключить всю рекламу на сайте

22-01-2011 07:47 Тело Дженнифер Скачать торрент  

Ну такой норм, актриса очень сексуальна ради нее и стоит по смотреть) pb.wtf



30-03-2014 10:20 Тело Дженнифер Скачать торрент  

плз станьте на раздачуpb.wtf



    Дорогой пользователь! Огромная просьба, поблагодарите релизера, оцените раздачу и оставьте свои комментарий, если Вы скачали Тело Дженнифер через торрент бесплатно! Внесите свою лепту в развитие PiratBit!
    Комментировать посты могут только пользователи прошедшие не сложную регистрацию
    Показать сообщения:    

    Тело Дженнифер через торрент
    Скачать бесплатно Тело Дженнифер
    Тело Дженнифер скачать торрент
    Тело Дженнифер смотреть онлайн
    Cкачать фильм Тело Дженнифер бесплатно
    Тело Дженнифер скачать торрент в хорошем качестве
    Тело Дженнифер смотреть онлайн бесплатно в хорошем качестве


    Вы не можете начинать темы
    Вы не можете отвечать на сообщения
    Вы не можете редактировать свои сообщения
    Вы не можете удалять свои сообщения
    Вы не можете голосовать в опросах
    Вы не можете прикреплять файлы к сообщениям
    Вы можете скачивать файлы