>

7.4

iTunes

7.4

2 сезон

9.4

1 сезон

1

7.4

2 сезон

7.2

iTunes

6.0

MVO

13

6.1

iTunes

8.3

Пиратка

30

ULTIMATE

pack

9.9

Лицензия

ВАЖНО

ИГРА 18+

pack

7.3

RePack

MK11

7.7

RePack

jed

7.8

RePack

fifa19

8.5

RePack

RDR2

RePack

NEED FOR SPEED™ PAYBACK

1 сезон

9 сезон

Бесстыжие 9 сезон

Все сериалы

все сериалы на PB.wtf

RePack

FAR CRY 5

Anonymous, доброй ночи, мы катастрофически не успеваем собрать деньги на оплату серверов, помогите нам пожалуйста 5,10,15р., для нас важна любая помощь . В качестве благодарности мы отключим Вам всю рекламу на сайте (укажите свой ник в строку Ваше имя)!

×
  
Magnet ссылка

Паучок / Itsy Bitsy (Мика Галло) [2019 г., ужасы, фэнтези, триллер, детектив, BDRip] AVO (Андрей Дольский) pb.wtf

Паучок через торрент pb.wtf

Размер: 1.46 GB | Добавлен: 2 года 2 мес. назад | Торрент скачан:20 раз
Смотреть онлайн Паучок | Скачать    Ребята, помогите собрать деньги на оплату серверов!!!

16-11-2019 11:06 Паучок Скачать торрент  

Паучок / Itsy Bitsy
Год выпуска: 2019

Страна: США

Жанр: Ужасы, фэнтези, триллер, детектив

Продолжительность: 01:34:56

Перевод: Авторский (одноголосый) - Андрей Дольский

Режиссер: Мика Галло

rating

В ролях: Брюс Дэвисон, Элизабет Робертс, Дениз Кросби, Арман Дарбо, Хлоя Перрин, Трева Этьен, Мэттью Кардаропле, Эйлин Дитц, Грэйс Шен, Робин Акал

Описание: Домашняя медсестра Кара вместе с 13-летним сыном Джесси и 8-летней дочерью Камбрией перебирается в сельскую глушь, чтобы ухаживать за пожилым человеком и жить в его доме. Переезд принимает мрачный поворот, когда в доме старика Джесси обнаруживает таинственную древнюю реликвию, из которой высвобождается злобная сущность в обличье огромного паука и начинает терроризировать несчастное семейство.
Качество: BDRip
Формат: AVI
Видео: XviD, 1746 Кбит/с, 720x304
Аудио: Русский, AC-3, 6 ch, 448 Кбит/с
Видео
Идентификатор : 0
Формат : MPEG-4 Visual
Профиль формата : Advanced Simple@L5
Настройки формата : BVOP1 / Custom Matrix
Параметр BVOP формата : 1
Параметр QPel формата : Нет
Параметр GMC формата : Без точки перехода
Параметр матрицы формата : Выборочная
Идентификатор кодека : XVID
Идентификатор кодека/Подсказка : XviD
Продолжительность : 1 ч. 34 м.
Битрейт : 1746 Кбит/сек
Ширина : 720 пикселей
Высота : 304 пикселя
Соотношение сторон : 2,35:1
Частота кадров : 23,976 (24000/1001) кадра/сек
Цветовое пространство : YUV
Субдискретизация насыщенности : 4:2:0
Битовая глубина : 8 бит
Тип развёртки : Прогрессивная
Метод сжатия : С потерями
Бит/(Пиксели*Кадры) : 0.333
Размер потока : 1,16 Гбайт (79%)
Библиотека кодирования : XviD 73

Аудио
Идентификатор : 1
Формат : AC-3
Формат/Информация : Audio Coding 3
Коммерческое название : Dolby Digital
Идентификатор кодека : 2000
Продолжительность : 1 ч. 34 м.
Вид битрейта : Постоянный
Битрейт : 448 Кбит/сек
Каналы : 6 каналов
ChannelLayout : L R C LFE Ls Rs
Частота : 48,0 КГц
Частота кадров : 31,250 кадров/сек (1536 SPF)
Битовая глубина : 16 бит
Метод сжатия : С потерями
Размер потока : 304 Мбайт (20%)
Выравнивание : Разделение по промежуткам
Продолжительность промежутка : 42 мс. (1,00 видеокадр)
Время предзагрузки промежутка : 500 мс.
ServiceKind/String : Complete Main

скриншот   скриншот   скриншот   скриншот   скриншот  

pb.wtf



Скачать Паучок через торрент https://pic1.kartinco.top/images/12/m5i45.jpg Скачать, смотреть онлайн Паучок бесплантно в хорошем качестве Описание: Домашняя медсестра Кара вместе с 13-летним сыном Джесси и 8-летней дочерью Камбрией перебирается в сельскую глушь, чтобы ... 10 10 2
Торрент: Зарегистрирован [2019-11-16 11:06] · скачан: 20 раз
Статус: √ проверено
Размер: 1.46 GB
Как cкачать? Как скачать Паучок через торрент | UTorrent

% Раздел Тема Автор DL S | L
Фильмы с авторской озвучкой [ 3.58 GB ] Паучок / Itsy Bitsy [2019 BDRip 720p] AVO Леонид Ильич Скачать
1 | 0
Фильмы (Blu-ray, BD-Remux, HDDVD) [ 23.97 GB ] Паучок / Itsy Bitsy [2019 BD Remux 1080p] AVO [А. Дольский] bober100 Скачать
1 | 0

28-11-2019 20:33  

Отключить всю рекламу на сайте

    Дорогой пользователь! Огромная просьба, поблагодарите релизера, оцените раздачу и оставьте свои комментарий, если Вы скачали Паучок через торрент бесплатно!
    Комментировать посты могут только пользователи прошедшие не сложную регистрацию
    Показать сообщения:    

    Паучок через торрент
    Скачать бесплатно Паучок
    Паучок скачать торрент
    Паучок смотреть онлайн
    Cкачать фильм Паучок бесплатно
    Паучок скачать торрент в хорошем качестве
    Паучок смотреть онлайн бесплатно в хорошем качестве


    Вы не можете начинать темы
    Вы не можете отвечать на сообщения
    Вы не можете редактировать свои сообщения
    Вы не можете удалять свои сообщения
    Вы не можете голосовать в опросах
    Вы не можете прикреплять файлы к сообщениям
    Вы можете скачивать файлы