Ссылка на приватное зеркало нашего сайта всего за 1$. Внимание количество ограничено!!!

2 сезон

iTunes

1 сезон

1

2 сезон

2 сезон

iTunes

1 сезон

RePack

30

Ultimate

ВАЖНО

ИГРА 18+

pack

RePack

MK11
pack

Забери бонус

RePack

jed

!!Акция!!

Alien_Rage

RePack

fifa19

RePack

Assassins Creed: Odyssey

RePack

NEED FOR SPEED™ PAYBACK

4 сезон

9 сезон

Бесстыжие 9 сезон

Все сериалы

все сериалы на PB.wtf

RePack

FAR CRY 5
  

Падение ангела / Angel Has Fallen (Рик Роман Во) [2019, боевик, BD Remux 1080p] DUB [Лицензия] pb.wtf

Падение ангела через торрент pb.wtf

Размер: 33.44 GB | Добавлен: 6 мес. назад | Торрент скачан:10 раз
Скачать  

17-11-2019 15:52 Падение ангела Скачать торрент  

Падение ангела | Angel Has Fallen
Год выпуска: 2019
Страна: США
Студия: Campbell Grobman Films, Eclectic Pictures, G-BASE
Жанр: боевик
Продолжительность: 02:01:03
Перевод: Дублированный | Лицензия
Субтитры: Русские (Full [Enigma]), английские

Режиссер: Рик Роман Во

rating

В ролях: Джерард Батлер, Морган Фриман, Пайпер Перабо, Джада Пинкетт Смит, Ник Нолти, Лэнс Реддик, Дэнни Хьюстон, Тим Блейк Нельсон, Майкл Лэндис, Крис Браунинг

Описание: Третья часть антитеррористической экшен-франшизы про высококлассного агента секретной службы США Майка Бэннинга (Джерард Батлер), который спасает от смертельного заговора первых лиц мировой политики. На этот раз целью террористов становится сам Бэннинг. Его подставляют и обвиняют в покушении на президента страны (Морган Фриман) — и теперь его разыскивают все спецслужбы. Чтобы очистить свое доброе имя, Бэннингу нужно самостоятельно раскрыть заговор.

Качество: BD Remux 1080p
Формат: MKV

Видео: MPEG-4 AVC, 1920x1080, 31.3 Mbit/s, 23.976 fps
Аудио #01: 48 kHz, DTS-HD MA, 5.1, 3804 Kbps | Дублированный | RUS |
Аудио #02: 48 kHz, AC3, 5.1, 640 Kbps | Дублированный | RUS |
Аудио #03: 48 kHz, TrueHD, 7.1, 3046 Kbps | Оригинал | ENG |
Аудио #04: 48 kHz, AC3, 5.1, 640 Kbps | Оригинал | ENG |
скриншот  скриншот  скриншот  скриншот  скриншот  

General
Unique ID : 207735913446208329717688857128932704131 (0x9C487B4BA641582E41B3C3A2E5BB7F83)
Complete name : E:Video111Angel.Has.Fallen.2019.BDREMUX.1080p.seleZen.mkv
Format : Matroska
Format version : Version 4
File size : 33.4 GiB
Duration : 2 h 1 min
Overall bit rate mode : Variable
Overall bit rate : 39.5 Mb/s
Movie name : Angel Has Fallen 2019 from селезень
Encoded date : UTC 2020-05-19 22:15:19
Writing application : mkvmerge v40.0.0 ('Old Town Road + Pony') 64-bit
Writing library : libebml v1.3.9 + libmatroska v1.5.2

Video
ID : 1
Format : AVC
Format/Info : Advanced Video Codec
Format profile : High@L4.1
Format settings : CABAC / 4 Ref Frames
Format settings, CABAC : Yes
Format settings, Reference : 4 frames
Codec ID : V_MPEG4/ISO/AVC
Duration : 2 h 1 min
Bit rate mode : Variable
Bit rate : 31.3 Mb/s
Maximum bit rate : 37.0 Mb/s
Width : 1 920 pixels
Height : 1 080 pixels
Display aspect ratio : 16:9
Frame rate mode : Constant
Frame rate : 23.976 (24000/1001) FPS
Color space : YUV
Chroma subsampling : 4:2:0
Bit depth : 8 bits
Scan type : Progressive
Bits/(Pixel*Frame) : 0.631
Stream size : 26.5 GiB (79%)
Language : English
Default : Yes
Forced : No

Audio #1
ID : 2
Format : DTS XLL
Format/Info : Digital Theater Systems
Commercial name : DTS-HD Master Audio
Codec ID : A_DTS
Duration : 2 h 1 min
Bit rate mode : Variable
Bit rate : 3 804 kb/s
Channel(s) : 6 channels
Channel layout : C L R Ls Rs LFE
Sampling rate : 48.0 kHz
Frame rate : 93.750 FPS (512 SPF)
Bit depth : 24 bits
Compression mode : Lossless
Stream size : 3.22 GiB (10%)
Title : Dub [License]
Language : Russian
Default : Yes
Forced : Yes

Audio #2
ID : 3
Format : AC-3
Format/Info : Audio Coding 3
Commercial name : Dolby Digital
Codec ID : A_AC3
Duration : 2 h 1 min
Bit rate mode : Constant
Bit rate : 640 kb/s
Channel(s) : 6 channels
Channel layout : L R C LFE Ls Rs
Sampling rate : 48.0 kHz
Frame rate : 31.250 FPS (1536 SPF)
Compression mode : Lossy
Stream size : 554 MiB (2%)
Title : Dub [License]
Language : Russian
Service kind : Complete Main
Default : No
Forced : No

Audio #3
ID : 4
Format : MLP FBA 16-ch
Format/Info : Meridian Lossless Packing FBA with 16-channel presentation
Commercial name : Dolby TrueHD with Dolby Atmos
Codec ID : A_TRUEHD
Duration : 2 h 1 min
Bit rate mode : Variable
Bit rate : 3 046 kb/s
Maximum bit rate : 4 485 kb/s
Channel(s) : 8 channels
Channel layout : L R C LFE Ls Rs Lb Rb
Sampling rate : 48.0 kHz
Frame rate : 1 200.000 FPS (40 SPF)
Compression mode : Lossless
Stream size : 2.58 GiB (8%)
Title : Original
Language : English
Default : No
Forced : No
Number of dynamic objects : 11
Bed channel count : 1 channel
Bed channel configuration : LFE

Audio #4
ID : 5
Format : AC-3
Format/Info : Audio Coding 3
Commercial name : Dolby Digital
Codec ID : A_AC3
Duration : 2 h 1 min
Bit rate mode : Constant
Bit rate : 640 kb/s
Channel(s) : 6 channels
Channel layout : L R C LFE Ls Rs
Sampling rate : 48.0 kHz
Frame rate : 31.250 FPS (1536 SPF)
Compression mode : Lossy
Stream size : 554 MiB (2%)
Language : English
Service kind : Complete Main
Default : No
Forced : No

Text #1
ID : 6
Format : UTF-8
Codec ID : S_TEXT/UTF8
Codec ID/Info : UTF-8 Plain Text
Duration : 1 h 52 min
Bit rate : 98 b/s
Count of elements : 1454
Stream size : 81.6 KiB (0%)
Title : Full [Enigma]
Language : Russian
Default : No
Forced : No

Text #2
ID : 7
Format : UTF-8
Codec ID : S_TEXT/UTF8
Codec ID/Info : UTF-8 Plain Text
Duration : 1 h 51 min
Bit rate : 58 b/s
Count of elements : 1452
Stream size : 47.5 KiB (0%)
Title : Full
Language : English
Default : No
Forced : No

Text #3
ID : 8
Format : UTF-8
Codec ID : S_TEXT/UTF8
Codec ID/Info : UTF-8 Plain Text
Duration : 1 h 52 min
Bit rate : 63 b/s
Count of elements : 1580
Stream size : 52.7 KiB (0%)
Title : SDH
Language : English
Default : No
Forced : No

Menu
00:00:00.000 : :Chapter 01
00:06:48.950 : :Chapter 02
00:15:08.157 : :Chapter 03
00:23:13.809 : :Chapter 04
00:28:35.714 : :Chapter 05
00:39:39.627 : :Chapter 06
00:45:33.564 : :Chapter 07
00:50:56.053 : :Chapter 08
00:59:23.393 : :Chapter 09
01:06:50.882 : :Chapter 10
01:16:25.873 : :Chapter 11
01:24:11.046 : :Chapter 12
01:30:14.409 : :Chapter 13
01:37:42.064 : :Chapter 14
01:44:54.538 : :Chapter 15
01:51:08.120 : :Chapter 16

pb.wtf



Скачать Падение ангела через торрент https://b.radikal.ru/b04/1911/63/bb4fb40b456c.jpg Скачать фильм Падение ангела через торрент бесплантно в хорошем качестве Описание: Третья часть антитеррористической экшен-франшизы про высококлассного агента секретной службы США Майка Бэннинга (Джерард Батлер), ... 10 10 7
Торрент: Зарегистрирован [2020-05-20 01:04] · скачан: 10 раз
Статус: √ проверено
Размер: 33.44 GB
Как cкачать? Как скачать Падение ангела через торрент | qTorrent

% Раздел Тема Автор DL S | L
Ultra HD (UHD: 2K, 4K, 8K) — видео сверхвысокой чёткости [ 63.67 GB ] Падение ангела / Angel Has Fallen [2019 UHD BDRemux 2160p ] DUB [] bober100 Скачать
1 | 0
Фильмы с авторской озвучкой [ 2.15 GB ] Падение ангела / Angel Has Fallen [2019 BDRip-AVC] AVO [Есарев] - ExKinoRay Mr. Grab Скачать
1 | 0
Ultra HD (UHD: 2K, 4K, 8K) — видео сверхвысокой чёткости [ 74.72 GB ] Падение ангела / Angel Has Fallen [2019 UHD BDRemux 2160p ] DUB [] +AVO [Д.Есарев] bober100 Скачать
1 | 0
Фильмы [HD 720p, 1080p] (Хороший звук DUB, MVO) [ 2.07 GB ] Падение ангела / Angel Has Fallen [2019 BDRip 1080p HEVC ] Мичман37 Скачать
1 | 0
Фильмы [HD 720p, 1080p] (Хороший звук DUB, MVO) [ 14.68 GB ] Падение ангела / Angel Has Fallen [2019 BDRip 1080p] DUB [] bober100 Скачать
4 | 0
Фильмы [HD 720p, 1080p] (Хороший звук DUB, MVO) [ 5.31 GB ] Падение ангела / Angel Has Fallen [2019 BDRip 720p] DUB [] bober100 Скачать
1 | 0
Фильмы 2019-2020 [DVDrip, WEB-DLRip, HDrip] (DUB, MVO) [ 2.18 GB ] Падение ангела / Angel Has Fallen [2019 BDRip] - [] Twi7ter Скачать
6 | 0


Последний раз редактировалось: bober100 (2020-05-20 01:04), всего редактировалось 1 раз

28-11-2019 20:33  

Отключить всю рекламу на сайте

03-01-2020 13:09 Падение ангела Скачать торрент  

Ну так, разок посмотреть можноpb.wtf



    Дорогой пользователь! Огромная просьба, поблагодарите релизера, оцените раздачу и оставьте свои комментарий, если Вы скачали Падение ангела через торрент бесплатно! Внесите свою лепту в развитие PiratBit!
    Комментировать посты могут только пользователи прошедшие не сложную регистрацию
    Показать сообщения:    

    Падение ангела через торрент
    Скачать бесплатно Падение ангела
    Падение ангела скачать торрент
    Падение ангела смотреть онлайн
    Cкачать фильм Падение ангела бесплатно
    Падение ангела скачать торрент в хорошем качестве
    Падение ангела смотреть онлайн бесплатно в хорошем качестве


    Вы не можете начинать темы
    Вы не можете отвечать на сообщения
    Вы не можете редактировать свои сообщения
    Вы не можете удалять свои сообщения
    Вы не можете голосовать в опросах
    Вы не можете прикреплять файлы к сообщениям
    Вы можете скачивать файлы