Ссылка на приватное зеркало нашего сайта всего за 1$. Внимание количество ограничено!!!

2 сезон

iTunes

1 сезон

1

iTunes

iTunes

iTunes

1 сезон

RePack

30

ИГРА 18+

pack

ВАЖНО

!!Акция!!

Alien_RageХит недели

RePack

MK11
pack

Забери бонус

RePack

jed

!!Акция!!

Alien_Rage

RePack

fifa19

RePack

Assassins Creed: Odyssey

RePack

NEED FOR SPEED™ PAYBACK

4 сезон

9 сезон

Бесстыжие 9 сезон

Все сериалы

все сериалы на PB.wtf

RePack

FAR CRY 5
  

Железный лес / Серии: 1-4 из 4 (Владимир Устюгов) [2019, Детектив, SATRip] pb.wtf

Железный лес через торрент pb.wtf

Размер: 2.35 GB | Добавлен: 11 мес. назад | Торрент скачан:15 раз
Скачать  

17-11-2019 19:04 Железный лес Скачать торрент  

Железный лес
Год выпуска: 2019
Производство: Россия, Производство «Кинокомпания Сигма», ООО «Марс Медиа Энтертейнмент»
Жанр: Детектив, экранизация
Продолжительность: ~ 00:45:00
Субтитры: Отсутствуют

Режиссёр: Владимир Устюгов

В ролях: Елена Великанова, Максим Щёголев, Любовь Германова, Валерий Сторожик, Максим Сапрыкин, Дмитрий Бедерин, Сергей Подольный, Виктория Герасимова, Борис Каморзин, Филипп Бледный, Екатерина Стулова, Евгений Пилипенко, Людмила Житкова, Артём Манукян

Описание: По детективу Анны Малышевой. Александра Корзухина снова оказывается в центре необычного расследования. Ее лучшая подруга Альбина находит своего сокурсника мертвым. На месте преступления следствие обнаруживает картины Авдея – одиозного художника эпохи перестройки, за работами которого охотятся музеи, ценители и коллекционеры всего мира. Пытаясь разгадать тайну этой находки, Корзухина внезапно узнает новые подробности прошлого своей подруги. И с каждым вновь открывающимся фактом ей все сложнее убеждать следствие, что Альбина не виновата ни в убийстве сокурсника, ни в последующих.

| Сэмпл |
Премьера: 17 ноября 2019 года (ТВЦ)
Реклама: Отсутствует

Качество: SATRip
Формат: AVI
Видео кодек: XviD
Аудио кодек: MP3

Видео: XviD, 720x400, ~ 1700 Кбит/с, 0.235 bit/pixel
Аудио: МР3, 48,0 КГц, 2 ch, 192 Кбит/с
Общее
Полное имя : D:\Железный.Лес.XviD.2019.SATRip.Kinozal-Reliz.7turza.Железный.Лес.Kinozal-Reliz.7turza.avi
Формат : AVI
Формат/Информация : Audio Video Interleave
Размер файла : 609 Мбайт
Продолжительность : 44 м. 49 с.
Общий поток : 1899 Кбит/сек
Название фильма : S01 E01 # from 7turza #
Программа кодирования : Lavf58.29.100

Видео
Идентификатор : 0
Формат : MPEG-4 Visual
Профиль формата : Advanced Simple@L5
Настройки формата : BVOP1
Параметр BVOP формата : 1
Параметр QPel формата : Нет
Параметр GMC формата : Без точки перехода
Параметр матрицы формата : Default (H.263)
Идентификатор кодека : XVID
Идентификатор кодека/Подсказка : XviD
Продолжительность : 44 м. 49 с.
Битрейт : 1694 Кбит/сек
Ширина : 720 пикселей
Высота : 400 пикселей
Соотношение сторон : 1,85:1
Частота кадров : 25,000 кадров/сек
Цветовое пространство : YUV
Субдискретизация насыщенности : 4:2:0
Битовая глубина : 8 бит
Тип развёртки : Прогрессивная
Бит/(Пиксели*Кадры) : 0.235
Размер потока : 543 Мбайт (89%)
Библиотека кодирования : XviD 67

Аудио
Идентификатор : 1
Формат : MPEG Audio
Версия формата : Version 1
Профиль формата : Layer 3
Настройки формата : Joint stereo
Идентификатор кодека : 55
Идентификатор кодека/Подсказка : MP3
Продолжительность : 44 м. 49 с.
Вид битрейта : Постоянный
Битрейт : 192 Кбит/сек
Каналы : 2 канала
Частота : 48,0 КГц
Размер потока : 61,6 Мбайт (10%)
Выравнивание : Соединение по промежуткам
Продолжительность промежутка : 24 мс. (0,60 видеокадр)
Библиотека кодирования : LAMEUUµ$üŧFˆÂŒ0
pb.wtf



Скачать Железный лес через торрент https://d.radikal.ru/d26/1911/39/640597677738.jpg Скачать фильм Железный лес через торрент бесплантно в хорошем качестве Описание: По детективу Анны Малышевой. Александра Корзухина снова оказывается в центре необычного расследования. Ее лучшая подруга Альбина ... 10 10 3
Торрент: Зарегистрирован [2019-11-17 19:05] · скачан: 15 раз
Статус: √ проверено
Размер: 2.35 GB
Как cкачать? Как скачать Железный лес через торрент | qTorrent

% Раздел Тема Автор DL S | L
Наши сериалы [ 2.27 GB ] Железный лес / Серии: 1-4 из 4 [2019 WEB-DLRip-AVC] bober100 Скачать
1 | 0
Наши сериалы [ 2.28 GB ] Железный лес / Серии: 1-4 из 4 [2019 WEB-DLRip] bober100 Скачать
1 | 0
Наши сериалы [ 2.07 GB ] Железный лес / Серии: 1-4 из 4 [2019 экранизация SATRip-AVC] aleksan55 Скачать
1 | 0

28-11-2019 20:33  

Отключить всю рекламу на сайте

    Дорогой пользователь! Огромная просьба, поблагодарите релизера, оцените раздачу и оставьте свои комментарий, если Вы скачали Железный лес через торрент бесплатно! Внесите свою лепту в развитие PiratBit!
    Комментировать посты могут только пользователи прошедшие не сложную регистрацию
    Показать сообщения:    

    Железный лес через торрент
    Скачать бесплатно Железный лес
    Железный лес скачать торрент
    Железный лес смотреть онлайн
    Cкачать фильм Железный лес бесплатно
    Железный лес скачать торрент в хорошем качестве
    Железный лес смотреть онлайн бесплатно в хорошем качестве


    Вы не можете начинать темы
    Вы не можете отвечать на сообщения
    Вы не можете редактировать свои сообщения
    Вы не можете удалять свои сообщения
    Вы не можете голосовать в опросах
    Вы не можете прикреплять файлы к сообщениям
    Вы можете скачивать файлы