Ссылка на приватное зеркало всего за 1$. Внимание количество ограничено!!!

iTunes

1+1

iTunes

мы

WEB-DL

1

iTunes

Чернобыль

iTunes

Ральф против интернета

Лицензия

ПШазам

Лицензия

Оно 2

Лицензия

30
pack

Вам бонус

ВАЖНО

!!Акция!!

Alien_RageХит недели

RePack

Resident Evil 21

ИГРА 18+

pack

RePack

jed

!!Акция!!

Alien_Rage

RePack

fifa19

RePack

Assassins Creed: Odyssey

RePack

NEED FOR SPEED™ PAYBACK

3 сезон

9 сезон

Бесстыжие 9 сезон

Все сериалы

все сериалы на PB.wtf

RePack

FAR CRY 5
Ребята, катастрофически не хватает 1900р. для оплаты серверов за Октябрь (всвязи с блокировками трафик упал в 3 раза), 1-2р., выручайте.
  

Зов волка / Le chant du loup (Антонин Бодри / Antonin Baudry) [2019, боевик, драма, BDRip-AVC] Dub [iTunes] - ExKinoRay pb.wtf

Зов волка через торрент pb.wtf

Раздают: 56 [ 52 KB/s ] Качают: 2 [ 120 KB/s ]
Размер: 1.91 GB | Добавлен: 26 д. назад | Торрент скачан:186 раз
Скачать  

17-11-2019 19:56 Зов волка Скачать торрент  

Название: Зов волка
Оригинальное название: Le chant du loup
Год выпуска: 2019
Жанр: Боевик, военный

Режиссер: Абель Ланзак
В ролях: Франсуа Сивиль, Омар Си, Матьё Кассовиц, Реда Катеб, Паула Бир, Алексис Михалик, Жан-Ив Бертело, Дамиен Боннар, Pierre Cevaer, Себастьен Либессар

Описание:
Молодой подводник обладает редким даром распознавать каждый звук, который он слышит. От его «Золотого уха» зависят судьбы людей, а ошибка ставит под угрозу жизнь всего экипажа подводной лодки. Желая вернуть доверие своих товарищей, он проводит собственное расследование военной провокации, в результате которой весь мир оказывается в шаге от ядерного апокалипсиса. Чтобы предотвратить мировую войну, элитной боевой команде подлодки необходимо совершить невозможное, ведь главный приказ отмене не подлежит.

rating

Страна: Франция
Студия: Pathé, Les Productions du Trésor, Chi-Fou-Mi Productions, Jouror Productions
Продолжительность: 01:55:45
Перевод: Дублированный | iTunes
Субтитры: Русские (Наталья Раевская (Enigma)), английские, французские

Формат: MKV
Качество: BDRip-AVC
Видео: MPEG-4 AVC, 1024x428 (2.40:1), 23.976 fps, 1974 Kbps, 0.188 bit/pixel
Аудио : 48 kHz, AC3, 5.1, 384 Kbps | RUS |
General
Unique ID : 197815682281656944725933023549999371891 (0x94D1EA2310E01840BC16EA6364FD5673)
Complete name : F:\The.Wolfs.Call.2019.iTunes.BDRip.AVC.ExKinoRay.mkv
Format : Matroska
Format version : Version 2
File size : 1.91 GiB
Duration : 1 h 55 min
Overall bit rate : 2 360 kb/s
Movie name : The Wolfs Call 2019 from ExKinoRay
Encoded date : UTC 2019-11-17 16:31:41
Writing application : mkvmerge v5.6.0 ('Kenya Kane') built on May 27 2012 16:44:04
Writing library : libebml v1.2.3 + libmatroska v1.3.0

Video
ID : 1
Format : AVC
Format/Info : Advanced Video Codec
Format profile : High@L4.1
Format settings, CABAC : Yes
Format settings, ReFrames : 12 frames
Codec ID : V_MPEG4/ISO/AVC
Duration : 1 h 55 min
Bit rate : 1 974 kb/s
Width : 1 024 pixels
Height : 428 pixels
Display aspect ratio : 2.40:1
Frame rate mode : Constant
Frame rate : 23.976 (23976/1000) FPS
Color space : YUV
Chroma subsampling : 4:2:0
Bit depth : 8 bits
Scan type : Progressive
Bits/(Pixel*Frame) : 0.188
Stream size : 1.56 GiB (82%)
Title : Enigma
Writing library : x264 core 152 r2851 ba24899
Encoding settings : cabac=1 / ref=12 / deblock=1:-2:-2 / analyse=0x3:0x113 / me=umh / subme=10 / psy=1 / psy_rd=1.02:0.05 / mixed_ref=1 / me_range=32 / chroma_me=1 / trellis=2 / 8x8dct=1 / cqm=0 / deadzone=21,11 / fast_pskip=0 / chroma_qp_offset=-3 / threads=12 / lookahead_threads=3 / sliced_threads=0 / nr=0 / decimate=0 / interlaced=0 / bluray_compat=0 / constrained_intra=0 / bframes=10 / b_pyramid=2 / b_adapt=2 / b_bias=0 / direct=3 / weightb=1 / open_gop=0 / weightp=2 / keyint=240 / keyint_min=23 / scenecut=40 / intra_refresh=0 / rc=2pass / mbtree=0 / bitrate=1974 / ratetol=1.0 / qcomp=0.60 / qpmin=0 / qpmax=51 / qpstep=4 / cplxblur=20.0 / qblur=0.5 / ip_ratio=1.30 / pb_ratio=1.20 / aq=3:0.80
Language : English
Default : Yes
Forced : No
Color range : Limited
Color primaries : BT.709
Transfer characteristics : BT.709
Matrix coefficients : BT.709

Audio
ID : 2
Format : AC-3
Format/Info : Audio Coding 3
Mode extension : CM (complete main)
Format settings, Endianness : Big
Codec ID : A_AC3
Duration : 1 h 55 min
Bit rate mode : Constant
Bit rate : 384 kb/s
Channel(s) : 6 channels
Channel positions : Front: L C R, Side: L R, LFE
Sampling rate : 48.0 kHz
Frame rate : 31.250 FPS (1536 spf)
Compression mode : Lossy
Stream size : 318 MiB (16%)
Title : iTunes
Language : Russian
Default : Yes
Forced : No

Text #1
ID : 3
Format : UTF-8
Codec ID : S_TEXT/UTF8
Codec ID/Info : UTF-8 Plain Text
Title : Full (Enigma)
Language : Russian
Default : No
Forced : No

Text #2
ID : 4
Format : UTF-8
Codec ID : S_TEXT/UTF8
Codec ID/Info : UTF-8 Plain Text
Language : English
Default : No
Forced : No

Text #3
ID : 5
Format : UTF-8
Codec ID : S_TEXT/UTF8
Codec ID/Info : UTF-8 Plain Text
Title : SDH
Language : French
Default : No
Forced : No

Menu
00:00:00.000 : :Chapter 01
00:12:02.138 : :Chapter 02
00:22:56.792 : :Chapter 03
00:32:05.298 : :Chapter 04
00:40:23.880 : :Chapter 05
00:51:37.594 : :Chapter 06
01:01:49.289 : :Chapter 07
01:12:54.662 : :Chapter 08
01:19:21.131 : :Chapter 09
01:28:48.949 : :Chapter 10
01:39:49.567 : :Chapter 11
01:49:54.421 : :Chapter 12


Релиз от:

Автор релиза: pb.wtf



Скачать Зов волка через торрент https://b.radikal.ru/b00/1906/37/caf1439f2781.png Скачать фильм Зов волка через торрент бесплантно в хорошем качестве Описание: Молодой подводник обладает редким даром распознавать каждый звук, который он слышит. От его «Золотого уха» зависят судьбы людей, ... 10 10 4
Info! Золотая раздача, скачанное не засчитывается.
Торрент: Зарегистрирован [2019-11-17 19:56] · скачан: 186 раз
Статус: √ проверено
Размер: 1.91 GB
Как cкачать? Как скачать Зов волка через торрент | qTorrent

% Раздел Тема Автор DL S | L
Фильмы 2019 [DVDrip, WEB-DLRip, HDrip] (DUB, MVO) [ 2.32 GB ] Зов волка / Le chant du loup [2019 BDRip-AVC] MVO [СВ Студия] - ExKinoRay Enigma2010 Скачать
8 | 0

28-11-2019 20:33  

Отключить всю рекламу на сайте

18-11-2019 03:19 Зов волка Скачать торрент  

Не в курсе, про рекламу уже не говорят ?pb.wtf



27-11-2019 14:49 Зов волка Скачать торрент  

Русские захватили Финляндию! Я в ах*е от этого дерьма! pb.wtf



    Дорогой пользователь! Огромная просьба, поблагодарите релизера, оцените раздачу и оставьте свои комментарий, если Вы скачали Зов волка через торрент бесплатно! Внесите свою лепту в развитие PiratBit!
    Комментировать посты могут только пользователи прошедшие не сложную регистрацию
    Показать сообщения:    

    Зов волка через торрент
    Скачать бесплатно Зов волка
    Зов волка скачать торрент
    Зов волка смотреть онлайн
    Cкачать фильм Зов волка бесплатно
    Зов волка скачать торрент в хорошем качестве
    Зов волка смотреть онлайн бесплатно в хорошем качестве


    Вы не можете начинать темы
    Вы не можете отвечать на сообщения
    Вы не можете редактировать свои сообщения
    Вы не можете удалять свои сообщения
    Вы не можете голосовать в опросах
    Вы не можете прикреплять файлы к сообщениям
    Вы можете скачивать файлы