Ссылка на приватное зеркало нашего сайта всего за 1$. Внимание количество ограничено!!!

2 сезон

iTunes

1 сезон

1

2 сезон

2 сезон

iTunes

1 сезон

RePack

30

Новинка

ВАЖНО

ИГРА 18+

pack

RePack

MK11
pack

Забери бонус

RePack

jed

!!Акция!!

Alien_Rage

RePack

fifa19

RePack

Assassins Creed: Odyssey

RePack

NEED FOR SPEED™ PAYBACK

4 сезон

9 сезон

Бесстыжие 9 сезон

Все сериалы

все сериалы на PB.wtf

RePack

FAR CRY 5
  

Приключения Барона Мюнхгаузена / The Adventures of Baron Munchausen (Терри Гиллиам) [1988, фэнтези, комедия, приключения, BDRemux 1080p] 4xMVO + 2xAVO - KORSAR pb.wtf

Приключения Барона Мюнхгаузена через торрент pb.wtf

Размер: 31.5 GB | Добавлен: 1 год назад | Торрент скачан:3 раза
Скачать  

18-11-2019 15:21 Приключения Барона Мюнхгаузена Скачать торрент  

Приключения Барона Мюнхгаузена / The Adventures of Baron Munchausen
Год выхода: 1988
Страна: Великобритания , Германия
Жанр: Фэнтези, комедия, приключения
Продолжительность: 02:06:17
Перевод: Профессиональный многоголосый, авторский одноголосый
Субтитры: Русские, английские
Режиссёр: Терри Гиллиам
В ролях: Джон Невилл, Эрик Айдл, Сара Полли, Оливер Рид, Ума Турман, Чарльз МакКоуэн, Робин Уильямс, Уинстон Дэннис, Джек Пёрвис, Валентина Кортезе, Джонатан Прайс, Билл Патерсон, Рэй Купер
Описание: Единственный, кто знает всю правду о Мюнхгаузене — сам барон. Легендарный герой рассказывает историю своих невероятных приключений. Но неужели он действительно летал на раскаленном пушечном ядре, сражался с трехголовым грифоном, путешествовал на Луну, видел обнаженную Венеру, выходящую из морской раковины, и в конце концов, столкнулся нос к носу с самой Смертью? В это невозможно поверить, но разве знаменитый Мюнхгаузен может врать?

rating

Качество: BDRemux 1080p
Формат: MKV
Видео: MPEG-4 AVC, 1920x1080 (16:9), 25980 kbps, 23.976 fps
Аудио 1: Russian: 48 kHz, DTS-HD MA Audio, 5.1 ch, 3587 kbps - MVO, Позитив-Мультимедиа
Аудио 2: Russian: 48 kHz, Dolby Digital Audio, 5.1 ch, 448 kbps - MVO, R5
Аудио 3: Russian: 48 kHz, Dolby Digital Audio, 2.0 ch, 192 kbps - MVO, Первый канал
Аудио 4: Russian: 48 kHz, Dolby Digital Audio, 2.0 ch, 192 kbps - MVO, Канал Россия
Аудио 5: Russian: 48 kHz, Dolby Digital Audio, 2.0 ch, 192 kbps - AVO, Ю. Живов
Аудио 6: Russian: 48 kHz, Dolby Digital Audio, 2.0 ch, 224 kbps - AVO, В. Горчаков
Аудио 7: Ukrainian: 48 kHz, DTS Audio, 5.1 ch, 1510 kbps - MVO, Новый Канал
Аудио 8: Ukrainian: 48 kHz, Dolby Digital Audio, 2.0 ch, 192 kbps - DVO, Интер
Аудио 9: English: 48 kHz, DTS-HD MA Audio, 5.1 ch, 3180 kbps - Оригинал

Релиз от:


Сатурн, 1991 год
Номинации (4):
Лучший фэнтези-фильм
Лучшие костюмы
Лучшие спецэффекты
Лучший грим

Оскар, 1990 год
Номинации (4):
Лучшие декорации
Лучшие костюмы
Лучшие визуальные эффекты
Лучший грим

Британская академия, 1990 год
Победитель (3):
Лучшие костюмы
Лучший грим
Лучшая работа художника-постановщика
Номинации (1):
Лучшие визуальные эффекты
Общее
Уникальный идентификатор : 190524888334769007304221016891947966336 (0x8F55C23E0FF76CA1A42A7B9E640B5F80)
Полное имя : Приключения.Барона.Мюнхгаузена.1988.BDRemux.1080p.KORSAR.mkv
Формат : Matroska
Версия формата : Version 4 / Version 2
Размер файла : 31,5 Гбайт
Продолжительность : 2 ч. 6 м.
Режим общего битрейта : Переменный
Общий поток : 35,7 Мбит/сек
Дата кодирования : UTC 2019-11-14 11:09:30
Программа кодирования : mkvmerge v7.8.0 ('River Man') 32bit built on Apr 3 2015 12:11:22
Библиотека кодирования : libebml v1.3.1 + libmatroska v1.4.2

Видео
Идентификатор : 1
Формат : AVC
Формат/Информация : Advanced Video Codec
Профиль формата : High@L4.1
Параметр CABAC формата : Да
Параметр RefFrames формата : 2 кадра
Параметр GOP формата : M=1, N=10
Идентификатор кодека : V_MPEG4/ISO/AVC
Продолжительность : 2 ч. 6 м.
Вид битрейта : Переменный
Битрейт : 26,0 Мбит/сек
Ширина : 1920 пикселей
Высота : 1080 пикселей
Соотношение сторон : 16:9
Режим частоты кадров : Постоянный
Частота кадров : 23,976 (24000/1001) кадра/сек
Цветовое пространство : YUV
Субдискретизация насыщенности : 4:2:0
Битовая глубина : 8 бит
Тип развёртки : Прогрессивная
Бит/(Пиксели*Кадры) : 0.523
Размер потока : 22,9 Гбайт (73%)
Язык : English
Default : Да
Forced : Нет

Аудио #1
Идентификатор : 2
Формат : DTS
Формат/Информация : Digital Theater Systems
Профиль формата : MA / Core
Режим : 16
Параметр Endianness формата : Big
Идентификатор кодека : A_DTS
Продолжительность : 2 ч. 6 м.
Вид битрейта : Переменный / Постоянный
Битрейт : 3587 Кбит/сек / 1509 Кбит/сек
Каналы : 6 каналов
Расположение каналов : Front: L C R, Side: L R, LFE
Частота : 48,0 КГц
Частота кадров : 93,750 кадра/сек (512 SPF)
Битовая глубина : 24 бит
Метод сжатия : Без потерь / Lossy
Размер потока : 3,16 Гбайт (10%)
Заголовок : MVO | Позитив-Мультимедиа
Язык : Russian
Default : Да
Forced : Нет

Аудио #2
Идентификатор : 3
Формат : AC-3
Формат/Информация : Audio Coding 3
Параметр Endianness формата : Big
Идентификатор кодека : A_AC3
Продолжительность : 2 ч. 6 м.
Вид битрейта : Постоянный
Битрейт : 448 Кбит/сек
Каналы : 6 каналов
Расположение каналов : Front: L C R, Side: L R, LFE
Частота : 48,0 КГц
Частота кадров : 31,250 кадров/сек (1536 SPF)
Битовая глубина : 16 бит
Метод сжатия : С потерями
Размер потока : 405 Мбайт (1%)
Заголовок : MVO | R5
Язык : Russian
ServiceKind/String : Complete Main
Default : Нет
Forced : Нет

Аудио #3
Идентификатор : 4
Формат : AC-3
Формат/Информация : Audio Coding 3
Параметр Endianness формата : Big
Идентификатор кодека : A_AC3
Продолжительность : 2 ч. 6 м.
Вид битрейта : Постоянный
Битрейт : 192 Кбит/сек
Каналы : 2 канала
Расположение каналов : Front: L R
Частота : 48,0 КГц
Частота кадров : 31,250 кадров/сек (1536 SPF)
Битовая глубина : 16 бит
Метод сжатия : С потерями
Размер потока : 173 Мбайт (1%)
Заголовок : MVO | Первый канал
Язык : Russian
ServiceKind/String : Complete Main
Default : Нет
Forced : Нет

Аудио #4
Идентификатор : 5
Формат : AC-3
Формат/Информация : Audio Coding 3
Параметр Endianness формата : Big
Идентификатор кодека : A_AC3
Продолжительность : 2 ч. 6 м.
Вид битрейта : Постоянный
Битрейт : 192 Кбит/сек
Каналы : 2 канала
Расположение каналов : Front: L R
Частота : 48,0 КГц
Частота кадров : 31,250 кадров/сек (1536 SPF)
Битовая глубина : 16 бит
Метод сжатия : С потерями
Размер потока : 173 Мбайт (1%)
Заголовок : MVO | Канал Россия
Язык : Russian
ServiceKind/String : Complete Main
Default : Нет
Forced : Нет

Аудио #5
Идентификатор : 6
Формат : AC-3
Формат/Информация : Audio Coding 3
Параметр Endianness формата : Big
Идентификатор кодека : A_AC3
Продолжительность : 2 ч. 6 м.
Вид битрейта : Постоянный
Битрейт : 192 Кбит/сек
Каналы : 2 канала
Расположение каналов : Front: L R
Частота : 48,0 КГц
Частота кадров : 31,250 кадров/сек (1536 SPF)
Битовая глубина : 16 бит
Метод сжатия : С потерями
Размер потока : 173 Мбайт (1%)
Заголовок : AVO | Ю. Живов
Язык : Russian
ServiceKind/String : Complete Main
Default : Нет
Forced : Нет

Аудио #6
Идентификатор : 7
Формат : AC-3
Формат/Информация : Audio Coding 3
Параметр Endianness формата : Big
Идентификатор кодека : A_AC3
Продолжительность : 2 ч. 6 м.
Вид битрейта : Постоянный
Битрейт : 224 Кбит/сек
Каналы : 2 канала
Расположение каналов : Front: L R
Частота : 48,0 КГц
Частота кадров : 31,250 кадров/сек (1536 SPF)
Битовая глубина : 16 бит
Метод сжатия : С потерями
Размер потока : 202 Мбайт (1%)
Заголовок : AVO | В. Горчаков
Язык : Russian
ServiceKind/String : Complete Main
Default : Нет
Forced : Нет

Аудио #7
Идентификатор : 8
Формат : DTS
Формат/Информация : Digital Theater Systems
Режим : 16
Параметр Endianness формата : Big
Идентификатор кодека : A_DTS
Продолжительность : 2 ч. 6 м.
Вид битрейта : Постоянный
Битрейт : 1510 Кбит/сек
Каналы : 6 каналов
Расположение каналов : Front: L C R, Side: L R, LFE
Частота : 48,0 КГц
Частота кадров : 93,750 кадра/сек (512 SPF)
Битовая глубина : 24 бит
Метод сжатия : С потерями
Размер потока : 1,33 Гбайт (4%)
Заголовок : MVO | Новый Канал
Язык : Ukrainian
Default : Нет
Forced : Нет

Аудио #8
Идентификатор : 9
Формат : AC-3
Формат/Информация : Audio Coding 3
Параметр Endianness формата : Big
Идентификатор кодека : A_AC3
Продолжительность : 2 ч. 6 м.
Вид битрейта : Постоянный
Битрейт : 192 Кбит/сек
Каналы : 2 канала
Расположение каналов : Front: L R
Частота : 48,0 КГц
Частота кадров : 31,250 кадров/сек (1536 SPF)
Битовая глубина : 16 бит
Метод сжатия : С потерями
Размер потока : 173 Мбайт (1%)
Заголовок : DVO | Интер
Язык : Ukrainian
ServiceKind/String : Complete Main
Default : Нет
Forced : Нет

Аудио #9
Идентификатор : 10
Формат : DTS
Формат/Информация : Digital Theater Systems
Профиль формата : MA / Core
Режим : 16
Параметр Endianness формата : Big
Идентификатор кодека : A_DTS
Продолжительность : 2 ч. 6 м.
Вид битрейта : Переменный / Постоянный
Битрейт : 3180 Кбит/сек / 1509 Кбит/сек
Каналы : 6 каналов
Расположение каналов : Front: L C R, Side: L R, LFE
Частота : 48,0 КГц
Частота кадров : 93,750 кадра/сек (512 SPF)
Битовая глубина : 24 бит
Метод сжатия : Без потерь / Lossy
Размер потока : 2,81 Гбайт (9%)
Заголовок : Original
Язык : English
Default : Нет
Forced : Нет

Текст #1
Идентификатор : 11
Формат : UTF-8
Идентификатор кодека : S_TEXT/UTF8
Идентификатор кодека/Информация : UTF-8 Plain Text
Продолжительность : 1 ч. 52 м.
Битрейт : 1 бит/сек
ElementCount : 30
Размер потока : 1,37 Кбайт (0%)
Заголовок : Forced
Язык : Russian
Default : Нет
Forced : Нет

Текст #2
Идентификатор : 12
Формат : UTF-8
Идентификатор кодека : S_TEXT/UTF8
Идентификатор кодека/Информация : UTF-8 Plain Text
Продолжительность : 1 ч. 59 м.
Битрейт : 67 бит/сек
ElementCount : 1299
Размер потока : 59,4 Кбайт (0%)
Заголовок : Full
Язык : Russian
Default : Нет
Forced : Нет

Текст #3
Идентификатор : 13
Формат : UTF-8
Идентификатор кодека : S_TEXT/UTF8
Идентификатор кодека/Информация : UTF-8 Plain Text
Продолжительность : 1 ч. 59 м.
Битрейт : 44 бит/сек
ElementCount : 1213
Размер потока : 38,9 Кбайт (0%)
Заголовок : Full
Язык : English
Default : Нет
Forced : Нет

Меню
00:00:00.000 : en:Chapter 1
00:03:40.009 : en:Chapter 2
00:05:37.211 : en:Chapter 3
00:12:52.144 : en:Chapter 4
00:14:36.542 : en:Chapter 5
00:18:28.146 : en:Chapter 6
00:24:50.112 : en:Chapter 7
00:31:41.146 : en:Chapter 8
00:36:26.306 : en:Chapter 9
00:41:14.052 : en:Chapter 10
00:45:05.701 : en:Chapter 11
00:51:03.516 : en:Chapter 12
00:53:33.333 : en:Chapter 13
00:56:15.744 : en:Chapter 14
01:01:39.193 : en:Chapter 15
01:04:13.137 : en:Chapter 16
01:11:32.493 : en:Chapter 17
01:15:22.970 : en:Chapter 18
01:22:37.287 : en:Chapter 19
01:31:29.657 : en:Chapter 20
01:43:13.041 : en:Chapter 21
01:58:40.493 : en:Chapter 22
pb.wtf



Скачать Приключения Барона Мюнхгаузена через торрент https://i4.imageban.ru/out/2019/11/14/7a73b18cc0a25c7462982f434941e90a.png Скачать фильм Приключения Барона Мюнхгаузена через торрент бесплантно в хорошем качестве Описание: Единственный, кто знает всю правду о Мюнхгаузене — сам барон. Легендарный герой рассказывает историю своих невероятных ... 10 10 1
Info! Золотая раздача, скачанное не засчитывается.
Торрент: Зарегистрирован [2019-11-18 15:21] · скачан: 3 раз
Статус: √ проверено
Размер: 31.5 GB
Как cкачать? Как скачать Приключения Барона Мюнхгаузена через торрент | qTorrent

28-11-2019 20:33  

Отключить всю рекламу на сайте

    Дорогой пользователь! Огромная просьба, поблагодарите релизера, оцените раздачу и оставьте свои комментарий, если Вы скачали Приключения Барона Мюнхгаузена через торрент бесплатно! Внесите свою лепту в развитие PiratBit!
    Комментировать посты могут только пользователи прошедшие не сложную регистрацию
    Показать сообщения:    

    Приключения Барона Мюнхгаузена через торрент
    Скачать бесплатно Приключения Барона Мюнхгаузена
    Приключения Барона Мюнхгаузена скачать торрент
    Приключения Барона Мюнхгаузена смотреть онлайн
    Cкачать фильм Приключения Барона Мюнхгаузена бесплатно
    Приключения Барона Мюнхгаузена скачать торрент в хорошем качестве
    Приключения Барона Мюнхгаузена смотреть онлайн бесплатно в хорошем качестве


    Вы не можете начинать темы
    Вы не можете отвечать на сообщения
    Вы не можете редактировать свои сообщения
    Вы не можете удалять свои сообщения
    Вы не можете голосовать в опросах
    Вы не можете прикреплять файлы к сообщениям
    Вы можете скачивать файлы