Ссылка на приватное зеркало нашего сайта всего за 1$. Внимание количество ограничено!!!

2 сезон

iTunes

1 сезон

1

2 сезон

2 сезон

iTunes

1 сезон

RePack

30

Ultimate

ВАЖНО

ИГРА 18+

pack

RePack

MK11
pack

Забери бонус

RePack

jed

!!Акция!!

Alien_Rage

RePack

fifa19

RePack

Assassins Creed: Odyssey

RePack

NEED FOR SPEED™ PAYBACK

4 сезон

9 сезон

Бесстыжие 9 сезон

Все сериалы

все сериалы на PB.wtf

RePack

FAR CRY 5
  

Дикая Лига (Андрей Богатырев, Арт Камачо) [2019, приключения, боевик, WEB-DLRip-AVC] [iTunes] pb.wtf

Дикая Лига через торрент pb.wtf

Раздают: 2 [ 0 KB/s ]
Размер: 1.46 GB | Добавлен: 1 год назад | Торрент скачан:406 раз
Скачать  

18-11-2019 17:26 Дикая Лига Скачать торрент  

Дикая Лига
Год выпуска: 2019
Страна: Россия
Производство: Кинокомпания «Союз Маринс Групп», Modern Age Productions
Жанр: приключения, боевик
Продолжительность: 01:50:54
Перевод: Не требуется | iTunes
Субтитры: отсутствуют

Режиссер: Андрей Богатырев, Арт Камачо



В ролях: Владимир Яглыч, Аделина Голубенко-Гизатуллина, Иван Охлобыстин, Дмитрий Назаров, Евгений Коряковский, Олеся Судзиловская, Эдриан Пол, Уильям Шокли, Станислав Тикунов, Анатолий Гущин, Иван Михайловский, Вячеслав Шихалеев, Павел Абраменков, Денис Кузнецов, Антон Колесников, Мария Дубина, Михаил Мелин, Вилен Бабичев

Описание: Основанная на реальных событиях начала XX века история парня Варлама из низших социальных слоев, которому ради того, чтобы быть с любимой, пришлось покинуть родные края и начать жить в Москве. Проявившего себя в бою стенка на стенку парня замечает англичанин, владелец футбольного клуба, который предлагает ему попробовать силы в команде. Однако команда не принимает неотесанного бурлака с Волги. Тогда собравшись с силами, Варлам вместе с настоящим патриотом и увлеченным футболом купцом Балашовым создает первую народную команду и становится лидером, изменив при этом свою жизнь и жизнь окружающих. Благодаря Варламу и его команде футбол в России становится поистине народной игрой...

Качество: WEB-DLRip-AVC
Формат: MKV

Видео: MPEG-4 AVC, ~ 1495 Кбит/с, 1024x432, 24 кадр/с
Аудио: 48 kHz, AC3 Dolby Digital, 3/2 (L,C,R,l,r) + LFE ch, ~384 kbps
скриншот  скриншот  скриншот  скриншот  

General
Unique ID : 249253291196218879561586117020538900246 (0xBB84700EC2028351BD5A2A21D98C0F16)
Complete name : F:\Dikaya.liga.(2019).WEB-DLRip.(AVC).by.Серый1779.Files-x.mkv
Format : Matroska
Format version : Version 2
File size : 1.46 GiB
Duration : 1 h 50 min
Overall bit rate : 1 879 kb/s
Encoded date : UTC 2019-11-18 16:35:48
Writing application : mkvmerge v7.8.0 ('River Man') 32bit built on Apr 3 2015 12:11:22
Writing library : libebml v1.3.1 + libmatroska v1.4.2

Video
ID : 1
Format : AVC
Format/Info : Advanced Video Codec
Format profile : High@L4.1
Format settings : CABAC / 10 Ref Frames
Format settings, CABAC : Yes
Format settings, RefFrames : 10 frames
Codec ID : V_MPEG4/ISO/AVC
Duration : 1 h 50 min
Bit rate : 1 495 kb/s
Width : 1 024 pixels
Height : 432 pixels
Display aspect ratio : 2.40:1
Frame rate mode : Constant
Frame rate : 24.000 FPS
Color space : YUV
Chroma subsampling : 4:2:0
Bit depth : 8 bits
Scan type : Progressive
Bits/(Pixel*Frame) : 0.141
Stream size : 1.13 GiB (78%)
Writing library : x264 core 146 r2538 121396c
Encoding settings : cabac=1 / ref=10 / deblock=1:-2:-1 / analyse=0x3:0x133 / me=umh / subme=11 / psy=1 / psy_rd=1.00:0.08 / mixed_ref=1 / me_range=32 / chroma_me=1 / trellis=2 / 8x8dct=1 / cqm=0 / deadzone=21,11 / fast_pskip=0 / chroma_qp_offset=-3 / threads=18 / lookahead_threads=3 / sliced_threads=0 / nr=0 / decimate=1 / interlaced=0 / bluray_compat=0 / constrained_intra=0 / bframes=11 / b_pyramid=2 / b_adapt=2 / b_bias=0 / direct=1 / weightb=1 / open_gop=0 / weightp=2 / keyint=250 / keyint_min=23 / scenecut=40 / intra_refresh=0 / rc=2pass / mbtree=0 / bitrate=1495 / ratetol=1.0 / qcomp=0.60 / qpmin=0 / qpmax=69 / qpstep=4 / cplxblur=20.0 / qblur=0.5 / ip_ratio=1.40 / pb_ratio=1.30 / aq=2:1.00
Default : Yes
Forced : No
Color range : Limited
Color primaries : BT.709
Transfer characteristics : BT.709
Matrix coefficients : BT.709

Audio
ID : 2
Format : AC-3
Format/Info : Audio Coding 3
Format settings, Endianness : Big
Codec ID : A_AC3
Duration : 1 h 50 min
Bit rate mode : Constant
Bit rate : 384 kb/s
Channel(s) : 6 channels
Channel positions : Front: L C R, Side: L R, LFE
Sampling rate : 48.0 kHz
Frame rate : 31.250 FPS (1536 SPF)
Bit depth : 16 bits
Compression mode : Lossy
Stream size : 305 MiB (20%)
Service kind : Complete Main
Default : Yes
Forced : No

pb.wtf



Скачать Дикая Лига через торрент http://d.radikal.ru/d10/1911/28/978bf57847e8.jpg Скачать фильм Дикая Лига через торрент бесплантно в хорошем качестве Описание: Основанная на реальных событиях начала XX века история парня Варлама из низших социальных слоев, которому ради того, чтобы быть с ... 9.9 10 14
Торрент: Зарегистрирован [2019-11-18 17:26] · скачан: 406 раз
Статус: √ проверено
Размер: 1.46 GB
Как cкачать? Как скачать Дикая Лига через торрент | qTorrent

% Раздел Тема Автор DL S | L
Наши новые фильмы 2018-2019 [ 1.46 GB ] Дикая Лига [2019 WEB-DLRip] bober100 Скачать
2 | 0
T Наши фильмы (HD, WEB-DL 720p, 1080p) [ 4.02 GB ] Дикая Лига [2019 WEB-DL 1080p] bober100 Скачать
1 | 0

28-11-2019 20:33  

Отключить всю рекламу на сайте

    Дорогой пользователь! Огромная просьба, поблагодарите релизера, оцените раздачу и оставьте свои комментарий, если Вы скачали Дикая Лига через торрент бесплатно! Внесите свою лепту в развитие PiratBit!
    Комментировать посты могут только пользователи прошедшие не сложную регистрацию
    Показать сообщения:    

    Дикая Лига через торрент
    Скачать бесплатно Дикая Лига
    Дикая Лига скачать торрент
    Дикая Лига смотреть онлайн
    Cкачать фильм Дикая Лига бесплатно
    Дикая Лига скачать торрент в хорошем качестве
    Дикая Лига смотреть онлайн бесплатно в хорошем качестве


    Вы не можете начинать темы
    Вы не можете отвечать на сообщения
    Вы не можете редактировать свои сообщения
    Вы не можете удалять свои сообщения
    Вы не можете голосовать в опросах
    Вы не можете прикреплять файлы к сообщениям
    Вы можете скачивать файлы