1 сезон

1 сезон

iTunes

1

КиноПоиск HD

Кинопоиск HD

iTunes

13

1 сезон

RePack

30

Новинка

ВАЖНО

ИГРА 18+

pack

RePack

MK11
pack

Легкие деньги

RePack

jed

RePack

fifa19

RePack

RDR2

RePack

NEED FOR SPEED™ PAYBACK

4 сезон

9 сезон

Бесстыжие 9 сезон

Все сериалы

все сериалы на PB.wtf

RePack

FAR CRY 5
  
Magnet ссылка

Грибы / Shrooms (Пэдди Бретнэк) [2007 г., ужасы, триллер, комедия, детектив, BDRip] DUB pb.wtf

Грибы через торрент pb.wtf

Размер: 1.45 GB | Добавлен: 1 год 4 мес. назад | Торрент скачан:13 раз
Скачать  

19-11-2019 01:35 Грибы Скачать торрент  

Грибы / Shrooms
Год выпуска: 2007

Страна: Дания, Великобритания, Ирландия

Жанр: Ужасы, триллер, комедия, детектив

Продолжительность: 01:24:12

Перевод: Дубляж

Режиссер: Пэдди Бретнэк

rating

В ролях: Линдси Хоун, Джек Хьюстон, Макс Кэш, Майя Хазен, Элис Гречин, Роберт Хоффман, Дон Вичерли, Шон МакГинли, Тоби Седжвик, Андре Поллак, Джек Глисон, Майк Карбери, Анна Тихонова, Горанна МакДональд, Берри Мерфи, Джо Мерфи, Джо Фелан, Стюарт Ранкин

Описание: Компания американских подростков в восторге от предложения их ирландского друга Джейка! Он зовет ребят совершить увлекательное путешествие по Ирландии, которое запомнится им на всю жизнь. Поглощенные этой идеей, юные путешественники — прелестная Тара, мужественный Блуто, заядлая туристка Лайза и хиппи Трой со своей подружкой Холли — отправляются в Ирландию, навстречу приключениям. Прибыв на место, молодые люди разбивают лагерь, а Джейк, взявший на себя роль проводника, рассказывает своим друзьям об особенностях ирландской природы. В числе прочего Джейк упоминает о том, что в данной местности растут грибы, которые ни в коем случае нельзя употреблять в пищу. Человек, съевший такой гриб, либо умирает, либо приобретает сверхъестественные способности, которые позволяют ему разговаривать с мертвыми и предвидеть будущее.
Качество: BDRip
Формат: AVI
Видео: XviD, 1685 Кбит/с, 720x304
Аудио#1: Русский, AC-3, 6 ch, 384 Кбит/с
Аудио#2: Английский, AC-3, 6 ch, 384 Кбит/с
Видео
Идентификатор : 0
Формат : MPEG-4 Visual
Профиль формата : Advanced Simple@L5
Настройки формата : BVOP1
Параметр BVOP формата : 1
Параметр QPel формата : Нет
Параметр GMC формата : Без точки перехода
Параметр матрицы формата : Default (H.263)
Идентификатор кодека : XVID
Идентификатор кодека/Подсказка : XviD
Продолжительность : 1 ч. 24 м.
Битрейт : 1685 Кбит/сек
Ширина : 720 пикселей
Высота : 304 пикселя
Соотношение сторон : 2,35:1
Частота кадров : 23,976 (24000/1001) кадра/сек
Цветовое пространство : YUV
Субдискретизация насыщенности : 4:2:0
Битовая глубина : 8 бит
Тип развёртки : Прогрессивная
Метод сжатия : С потерями
Бит/(Пиксели*Кадры) : 0.321
Размер потока : 1015 Мбайт (68%)
Библиотека кодирования : XviD 1.2.1 (UTC 2008-12-04)

Аудио #1
Идентификатор : 1
Формат : AC-3
Формат/Информация : Audio Coding 3
Коммерческое название : Dolby Digital
Идентификатор кодека : 2000
Продолжительность : 1 ч. 24 м.
Вид битрейта : Постоянный
Битрейт : 384 Кбит/сек
Каналы : 6 каналов
ChannelLayout : L R C LFE Ls Rs
Частота : 48,0 КГц
Частота кадров : 31,250 кадров/сек (1536 SPF)
Битовая глубина : 16 бит
Метод сжатия : С потерями
Размер потока : 231 Мбайт (16%)
Выравнивание : Разделение по промежуткам
Продолжительность промежутка : 42 мс. (1,00 видеокадр)
Время предзагрузки промежутка : 500 мс.
ServiceKind/String : Complete Main

Аудио #2
Идентификатор : 2
Формат : AC-3
Формат/Информация : Audio Coding 3
Коммерческое название : Dolby Digital
Идентификатор кодека : 2000
Продолжительность : 1 ч. 24 м.
Вид битрейта : Постоянный
Битрейт : 384 Кбит/сек
Каналы : 6 каналов
ChannelLayout : L R C LFE Ls Rs
Частота : 48,0 КГц
Частота кадров : 31,250 кадров/сек (1536 SPF)
Битовая глубина : 16 бит
Метод сжатия : С потерями
Размер потока : 231 Мбайт (16%)
Выравнивание : Разделение по промежуткам
Продолжительность промежутка : 42 мс. (1,00 видеокадр)
Время предзагрузки промежутка : 500 мс.
ServiceKind/String : Complete Main

скриншот   скриншот   скриншот   скриншот   скриншот  

pb.wtf



Скачать Грибы через торрент https://pic1.kartinco.top/images/12/4ro1b.jpg Скачать фильм Грибы через торрент бесплантно в хорошем качестве Описание: Компания американских подростков в восторге от предложения их ирландского друга Джейка! Он зовет ребят совершить увлекательное ... 10 10 1
Торрент: Зарегистрирован [2019-11-19 01:35] · скачан: 13 раз
Статус: √ проверено
Размер: 1.45 GB
Как cкачать? Как скачать Грибы через торрент | UTorrent

28-11-2019 20:33  

Отключить всю рекламу на сайте

    Дорогой пользователь! Огромная просьба, поблагодарите релизера, оцените раздачу и оставьте свои комментарий, если Вы скачали Грибы через торрент бесплатно! Внесите свою лепту в развитие PiratBit!
    Комментировать посты могут только пользователи прошедшие не сложную регистрацию
    Показать сообщения:    

    Грибы через торрент
    Скачать бесплатно Грибы
    Грибы скачать торрент
    Грибы смотреть онлайн
    Cкачать фильм Грибы бесплатно
    Грибы скачать торрент в хорошем качестве
    Грибы смотреть онлайн бесплатно в хорошем качестве


    Вы не можете начинать темы
    Вы не можете отвечать на сообщения
    Вы не можете редактировать свои сообщения
    Вы не можете удалять свои сообщения
    Вы не можете голосовать в опросах
    Вы не можете прикреплять файлы к сообщениям
    Вы можете скачивать файлы