новый адрес
Ссылка на приватное зеркало всего за 1$. Внимание количество ограничено!!!

iTunes

1+1

iTunes

мы

WEB-DL

1

iTunes

Чернобыль

iTunes

Ральф против интернета

Лицензия

ПШазам

Лицензия

Оно 2

Лицензия

30
pack

Вам бонус

ВАЖНО

!!Акция!!

Alien_RageХит недели

RePack

Resident Evil 21

ИГРА 18+

pack

RePack

jed

!!Акция!!

Alien_Rage

RePack

fifa19

RePack

Assassins Creed: Odyssey

RePack

NEED FOR SPEED™ PAYBACK

3 сезон

9 сезон

Бесстыжие 9 сезон

Все сериалы

все сериалы на PB.wtf

RePack

FAR CRY 5
Ребята, катастрофически не хватает 1900р. для оплаты серверов за Октябрь (всвязи с блокировками трафик упал в 3 раза), 1-2р., выручайте.
  

Рэй Донован / Ray Donovan / Сезон: 7 / Серия: 1-3 из 12 (Джон Дал, Майкл Аппендаль, Такер Гейтс) [2019, драма, криминал, WEB-DL 720p] MVO [NewStudio] pb.wtf

Рэй Донован через торрент pb.wtf

Качают: 2 [ 0 KB/s ]
Размер: 4.7 GB | Добавлен: 4 д. назад | Торрент скачан:4 раза
Скачать  

19-11-2019 04:21 Рэй Донован Скачать торрент  

Рэй Донован | Ray Donovan Год выпуска: 2019
Страна: США
Жанр: Драма, криминал
Продолжительность: ~00:55:00
Перевод: Профессиональный (многоголосый закадровый) | NewStudio
Субтитры: Русские (Full |«Amedia»|, английские (SDH)

Режиссёр: Джон Дал, Майкл Аппендаль, Такер Гейтс

В ролях: Лив Шрайбер, Паула Малкомсон, Кэтрин Монниг, Пуч Холл, Кэррис Дорси, Девон Бэгби, Джон Войт, Стивен Бауэр, Уильям Стэнфорд Дэвис, Майкл МакГрэйди, Фрэнк Уэйли, Эллиотт Гулд, Октавиус Дж. Джонсон, Эмбир Чилдерс и др.

Описание: Лив Шрайбер возвращается в роли профессионального чистильщика — история Рэя Донована продолжается. В седьмом сезоне наш антигерой изо всех сил старается превратится в того человека, в ком нуждается его семья. И когда у него намечается небольшой прогресс в работе с психотерапевтом (приглашённая звезда Алан Алда), вновь возникают призраки прошлого. Они вынуждают Донована вернуться к прежней жизни. Ему приходится балансировать между решением проблем своих клиентов и тем, чтобы окончательно не слететь с катушек самому (и вдобавок не попасться властям). Тем временем коррупционные делишки нью-йоркского мэра приносят за собой отголоски тёмного прошлого папаши Рэя Микки (Джон Войт).



Качество: WEB-DL 720p
Формат: MKV

Видео: AVC, 1280x720 (16:9), 23.976 fps, ~3500 kbps
Аудио №1: AC3, 6 ch, 48 kHz, 640 kbps | NewStudio
Аудио №2: AC3, 6 ch, 48 kHz, 640 kbps | Original


Реклама: Отсутствует
Исходник: Ray.Donovan.S07.720p.AMZN.WEB-DL.DDP5.1.x264-NTb
01. Faith. Hope. Love. Luck. / Никогда тебя не отдам
General
Unique ID : 180391195519619906064428271828928413268 (0x87B6149CAA042CE2822CCD28B4D5BE54)
Complete name : F:\Ray.Donovan_s07_720p\Ray.Donovan.s07e01.WEB-DL.720p_EniaHD.mkv
Format : Matroska
Format version : Version 4 / Version 2
File size : 1.69 GiB
Duration : 50 min 59 s
Overall bit rate : 4 750 kb/s
Movie name : Ray Donovan 07x01 (Faith. Hope. Love. Luck) - release by Kastiel@EniaHD
Encoded date : UTC 2019-11-18 21:54:10
Writing application : mkvmerge v18.0.0 ('Apricity') 64-bit
Writing library : libebml v1.3.5 + libmatroska v1.4.8

Video
ID : 1
Format : AVC
Format/Info : Advanced Video Codec
Format profile : High@L3.1
Format settings : CABAC / 4 Ref Frames
Format settings, CABAC : Yes
Format settings, ReFrames : 4 frames
Codec ID : V_MPEG4/ISO/AVC
Duration : 50 min 58 s
Bit rate mode : Constant
Bit rate : 3 468 kb/s
Nominal bit rate : 6 000 kb/s
Width : 1 280 pixels
Height : 720 pixels
Display aspect ratio : 16:9
Frame rate mode : Constant
Frame rate : 23.976 (24000/1001) FPS
Color space : YUV
Chroma subsampling : 4:2:0
Bit depth : 8 bits
Scan type : Progressive
Bits/(Pixel*Frame) : 0.157
Stream size : 1.23 GiB (73%)
Default : Yes
Forced : No
Color range : Limited
Color primaries : BT.709
Transfer characteristics : BT.709
Matrix coefficients : BT.709

Audio #1
ID : 2
Format : AC-3
Format/Info : Audio Coding 3
Codec ID : A_AC3
Duration : 50 min 59 s
Bit rate mode : Constant
Bit rate : 640 kb/s
Channel(s) : 6 channels
Channel positions : Front: L C R, Side: L R, LFE
Sampling rate : 48.0 kHz
Frame rate : 31.250 FPS (1536 SPF)
Bit depth : 16 bits
Compression mode : Lossy
Stream size : 233 MiB (13%)
Title : DD5.1 NewStudio
Language : Russian
Service kind : Complete Main
Default : Yes
Forced : No

Audio #2
ID : 3
Format : AC-3
Format/Info : Audio Coding 3
Codec ID : A_AC3
Duration : 50 min 59 s
Bit rate mode : Constant
Bit rate : 640 kb/s
Channel(s) : 6 channels
Channel positions : Front: L C R, Side: L R, LFE
Sampling rate : 48.0 kHz
Frame rate : 31.250 FPS (1536 SPF)
Bit depth : 16 bits
Compression mode : Lossy
Stream size : 233 MiB (13%)
Title : DD5.1 Original
Language : English
Service kind : Complete Main
Default : No
Forced : No

Text #1
ID : 4
Format : UTF-8
Codec ID : S_TEXT/UTF8
Codec ID/Info : UTF-8 Plain Text
Duration : 47 min 37 s
Bit rate : 56 b/s
Count of elements : 483
Stream size : 19.7 KiB (0%)
Title : Full |Amedia|
Language : Russian
Default : No
Forced : No

Text #2
ID : 5
Format : UTF-8
Codec ID : S_TEXT/UTF8
Codec ID/Info : UTF-8 Plain Text
Duration : 49 min 16 s
Bit rate : 51 b/s
Count of elements : 768
Stream size : 18.6 KiB (0%)
Title : SDH
Language : English
Default : No
Forced : No
При каждом добавлении создаётся новый торрент. Чтобы начать докачку новой серии, пользователям необходимо сделать следующее:
- остановить скачивание;
- удалить старый торрент у себя из клиента (старые серии удалять не надо);
- скачать новый торрент и запустить его у себя в клиенте вместо старого, при этом указать клиенту путь в старую папку, куда и должно происходить скачивание новых серий.
pb.wtf



Скачать Рэй Донован через торрент http://pic1.kartinco.top/images/12/4hxp5.jpg Скачать фильм Рэй Донован через торрент бесплантно в хорошем качестве Описание: Лив Шрайбер возвращается в роли профессионального чистильщика — история Рэя Донована продолжается. В седьмом сезоне наш антигерой ... 10 10 3
Торрент: Зарегистрирован [2019-12-04 16:25] · скачан: 4 раз
Статус: √ проверено
Размер: 4.7 GB
Как cкачать? Как скачать Рэй Донован через торрент | qTorrent

% Раздел Тема Автор DL S | L
Рэй Донован [ 8.61 GB ] Рэй Донован / Ray Donovan / Сезон: 7 / Серия: 1-3 из 12 [2019 WEB-DL 1080p] MVO [Novamedia / Amedia] bober100 Скачать
1 | 0
Рэй Донован [ 8.35 GB ] Рэй Донован / Ray Donovan / Сезон: 7 / Серия: 1-3 из 12 [2019 WEB-DL 1080p] MVO [Jaskier] bober100 Скачать
1 | 0
Рэй Донован [ 1.42 GB ] Рэй Донован / Ray Donovan / Сезон: 7 / Серии: 1-3 из 12 [2019 WEB-DLRip] [MVO] killermax2013 Скачать
2 | 3
Рэй Донован [ 4.17 GB ] Рэй Донован / Ray Donovan / Сезон: 7 / Серия: 1-3 из 12 [2019 WEB-DL 720p] MVO [Jaskier] bober100 Скачать
1 | 0
Рэй Донован [ 1.74 GB ] Рэй Донован / Ray Donovan / Сезон: 7 / Серия: 1-3 из 12 [2019 WEB-DLRip] MVO [Jaskier] bober100 Скачать
1 | 0
Рэй Донован [ 2.08 GB ] Рэй Донован / Ray Donovan / Сезон: 7 / Серия: 1-3 из 12 [2019 WEB-DLRip] MVO [NewStudio] bober100 Скачать
1 | 0
Рэй Донован [ 8.88 GB ] Рэй Донован / Ray Donovan / Сезон: 7 / Серия: 1-3 из 12 [2019 WEB-DL 1080p] MVO [NewStudio] bober100 Скачать
1 | 0

28-11-2019 20:33  

Отключить всю рекламу на сайте

    Дорогой пользователь! Огромная просьба, поблагодарите релизера, оцените раздачу и оставьте свои комментарий, если Вы скачали Рэй Донован через торрент бесплатно! Внесите свою лепту в развитие PiratBit!
    Комментировать посты могут только пользователи прошедшие не сложную регистрацию
    Показать сообщения:    

    Рэй Донован через торрент
    Скачать бесплатно Рэй Донован
    Рэй Донован скачать торрент
    Рэй Донован смотреть онлайн
    Cкачать фильм Рэй Донован бесплатно
    Рэй Донован скачать торрент в хорошем качестве
    Рэй Донован смотреть онлайн бесплатно в хорошем качестве


    Вы не можете начинать темы
    Вы не можете отвечать на сообщения
    Вы не можете редактировать свои сообщения
    Вы не можете удалять свои сообщения
    Вы не можете голосовать в опросах
    Вы не можете прикреплять файлы к сообщениям
    Вы можете скачивать файлы