новый адрес
Ссылка на приватное зеркало всего за 1$. Внимание количество ограничено!!!

iTunes

1+1

iTunes

мы

WEB-DL

1

iTunes

Чернобыль

iTunes

Ральф против интернета

Лицензия

ПШазам

Лицензия

Оно 2

Лицензия

30
pack

Вам бонус

ВАЖНО

!!Акция!!

Alien_RageХит недели

RePack

Resident Evil 21

ИГРА 18+

pack

RePack

jed

!!Акция!!

Alien_Rage

RePack

fifa19

RePack

Assassins Creed: Odyssey

RePack

NEED FOR SPEED™ PAYBACK

3 сезон

9 сезон

Бесстыжие 9 сезон

Все сериалы

все сериалы на PB.wtf

RePack

FAR CRY 5
Ребята, катастрофически не хватает 1900р. для оплаты серверов за Октябрь (всвязи с блокировками трафик упал в 3 раза), 1-2р., выручайте.
  

Рэй Донован / Ray Donovan / Сезон: 7 / Серия: 1-3 из 12 (Джон Дал, Майкл Аппендаль, Такер Гейтс) [2019, Драма, криминал, WEB-DLRip] MVO [NewStudio] pb.wtf

Рэй Донован через торрент pb.wtf

Размер: 2.08 GB | Добавлен: 4 д. назад | Торрент скачан:1 раз
Скачать  

19-11-2019 04:49 Рэй Донован Скачать торрент  

Рэй Донован | Ray Donovan Год выпуска: 2019
Страна: США
Жанр: Драма, криминал
Продолжительность: ~00:55:00
Перевод: Профессиональный (многоголосый закадровый) | NewStudio
Субтитры: Русские (Amedia), английские (SDH)

Режиссёр: Джон Дал, Майкл Аппендаль, Такер Гейтс

В ролях: Лив Шрайбер, Паула Малкомсон, Кэтрин Монниг, Пуч Холл, Кэррис Дорси, Девон Бэгби, Джон Войт, Стивен Бауэр, Уильям Стэнфорд Дэвис, Майкл МакГрэйди, Фрэнк Уэйли, Эллиотт Гулд, Октавиус Дж. Джонсон, Эмбир Чилдерс и др.

Описание: Лив Шрайбер возвращается в роли профессионального чистильщика — история Рэя Донована продолжается. В седьмом сезоне наш антигерой изо всех сил старается превратится в того человека, в ком нуждается его семья. И когда у него намечается небольшой прогресс в работе с психотерапевтом (приглашённая звезда Алан Алда), вновь возникают призраки прошлого. Они вынуждают Донована вернуться к прежней жизни. Ему приходится балансировать между решением проблем своих клиентов и тем, чтобы окончательно не слететь с катушек самому (и вдобавок не попасться властям). Тем временем коррупционные делишки нью-йоркского мэра приносят за собой отголоски тёмного прошлого папаши Рэя Микки (Джон Войт).




Качество: WEB-DLRip
Формат: AVI

Видео: XviD, 720x400 (16:9), 23.976 кадров/сек, 1600 Кбит/сек
Аудио Rus: AC3, 48,0 kHz, 2 ch, 192 Кбит/сек | NewStudio
Аудио Eng: AC3, 48,0 kHz, 2 ch, 192 Кбит/сек
скриншот  скриншот  скриншот  скриншот  

скриншот  скриншот  скриншот  скриншот  

Общее
Полное имя : E:\Ray Donovan (Season 7) WEB-DLRip\Ray.Donovan.S07E01.WEB-DLRip.RGzsRutracker.[Wentworth_Miller].avi
Формат : AVI
Формат/Информация : Audio Video Interleave
Размер файла : 729 Мбайт
Продолжительность : 50 м. 58 с.
Общий поток : 1998 Кбит/сек
Название фильма : Ray Donovan 07x01 (Faith. Hope. Love. Luck) - Release by Wentworth_Miller
Программа кодирования : VirtualDubMod 1.5.10.3 | www.virtualdub-fr.org || (build 2550/release)

Видео
Идентификатор : 0
Формат : MPEG-4 Visual
Профиль формата : Advanced Simple@L5
Настройки формата : BVOP1
Параметр BVOP формата : 1
Параметр QPel формата : Нет
Параметр GMC формата : Без точки перехода
Параметр матрицы формата : Default (MPEG)
Идентификатор кодека : XVID
Идентификатор кодека/Подсказка : XviD
Продолжительность : 50 м. 58 с.
Битрейт : 1600 Кбит/сек
Ширина : 720 пикселей
Высота : 400 пикселей
Соотношение сторон : 16:9
Частота кадров : 23,976 (24000/1001) кадра/сек
Цветовое пространство : YUV
Субдискретизация насыщенности : 4:2:0
Битовая глубина : 8 бит
Тип развёртки : Прогрессивная
Метод сжатия : С потерями
Бит/(Пиксели*Кадры) : 0.232
Размер потока : 583 Мбайт (80%)
Библиотека кодирования : XviD 67

Аудио #1
Идентификатор : 1
Формат : AC-3
Формат/Информация : Audio Coding 3
Коммерческое название : Dolby Digital
Идентификатор кодека : 2000
Продолжительность : 50 м. 58 с.
Вид битрейта : Постоянный
Битрейт : 192 Кбит/сек
Каналы : 2 канала
ChannelLayout : L R
Частота : 48,0 КГц
Частота кадров : 31,250 кадров/сек (1536 SPF)
Метод сжатия : С потерями
Размер потока : 70,0 Мбайт (10%)
Выравнивание : Разделение по промежуткам
Продолжительность промежутка : 42 мс. (1,00 видеокадр)
Время предзагрузки промежутка : 500 мс.
ServiceKind/String : Complete Main

Аудио #2
Идентификатор : 2
Формат : AC-3
Формат/Информация : Audio Coding 3
Коммерческое название : Dolby Digital
Идентификатор кодека : 2000
Продолжительность : 50 м. 58 с.
Вид битрейта : Постоянный
Битрейт : 192 Кбит/сек
Каналы : 2 канала
ChannelLayout : L R
Частота : 48,0 КГц
Частота кадров : 31,250 кадров/сек (1536 SPF)
Метод сжатия : С потерями
Размер потока : 70,0 Мбайт (10%)
Выравнивание : Разделение по промежуткам
Продолжительность промежутка : 42 мс. (1,00 видеокадр)
Время предзагрузки промежутка : 500 мс.
ServiceKind/String : Complete Main

При каждом добавлении создаётся новый торрент. Чтобы начать докачку новой серии, пользователям необходимо сделать следующее:
- остановить скачивание;
- удалить старый торрент у себя из клиента (старые серии удалять не надо);
- скачать новый торрент и запустить его у себя в клиенте вместо старого, при этом указать клиенту путь в старую папку, куда и должно происходить скачивание новых серий.
pb.wtf



Скачать Рэй Донован через торрент http://pic1.kartinco.top/images/12/4hxp5.jpg Скачать фильм Рэй Донован через торрент бесплантно в хорошем качестве Описание: Лив Шрайбер возвращается в роли профессионального чистильщика — история Рэя Донована продолжается. В седьмом сезоне наш антигерой ... 10 10 3
Торрент: Зарегистрирован [2019-12-04 18:20] · скачан: 1 раз
Статус: √ проверено
Размер: 2.08 GB
Как cкачать? Как скачать Рэй Донован через торрент | qTorrent

% Раздел Тема Автор DL S | L
Рэй Донован [ 8.61 GB ] Рэй Донован / Ray Donovan / Сезон: 7 / Серия: 1-3 из 12 [2019 WEB-DL 1080p] MVO [Novamedia / Amedia] bober100 Скачать
1 | 0
Рэй Донован [ 8.35 GB ] Рэй Донован / Ray Donovan / Сезон: 7 / Серия: 1-3 из 12 [2019 WEB-DL 1080p] MVO [Jaskier] bober100 Скачать
1 | 0
Рэй Донован [ 1.42 GB ] Рэй Донован / Ray Donovan / Сезон: 7 / Серии: 1-3 из 12 [2019 WEB-DLRip] [MVO] killermax2013 Скачать
2 | 3
Рэй Донован [ 4.17 GB ] Рэй Донован / Ray Donovan / Сезон: 7 / Серия: 1-3 из 12 [2019 WEB-DL 720p] MVO [Jaskier] bober100 Скачать
1 | 0
Рэй Донован [ 1.74 GB ] Рэй Донован / Ray Donovan / Сезон: 7 / Серия: 1-3 из 12 [2019 WEB-DLRip] MVO [Jaskier] bober100 Скачать
1 | 0
Рэй Донован [ 4.7 GB ] Рэй Донован / Ray Donovan / Сезон: 7 / Серия: 1-3 из 12 [2019 WEB-DL 720p] MVO [NewStudio] bober100 Скачать
1 | 1
Рэй Донован [ 8.88 GB ] Рэй Донован / Ray Donovan / Сезон: 7 / Серия: 1-3 из 12 [2019 WEB-DL 1080p] MVO [NewStudio] bober100 Скачать
1 | 0

28-11-2019 20:33  

Отключить всю рекламу на сайте

    Дорогой пользователь! Огромная просьба, поблагодарите релизера, оцените раздачу и оставьте свои комментарий, если Вы скачали Рэй Донован через торрент бесплатно! Внесите свою лепту в развитие PiratBit!
    Комментировать посты могут только пользователи прошедшие не сложную регистрацию
    Показать сообщения:    

    Рэй Донован через торрент
    Скачать бесплатно Рэй Донован
    Рэй Донован скачать торрент
    Рэй Донован смотреть онлайн
    Cкачать фильм Рэй Донован бесплатно
    Рэй Донован скачать торрент в хорошем качестве
    Рэй Донован смотреть онлайн бесплатно в хорошем качестве


    Вы не можете начинать темы
    Вы не можете отвечать на сообщения
    Вы не можете редактировать свои сообщения
    Вы не можете удалять свои сообщения
    Вы не можете голосовать в опросах
    Вы не можете прикреплять файлы к сообщениям
    Вы можете скачивать файлы