Ссылка на приватное зеркало нашего сайта всего за 1$. Внимание количество ограничено!!!

2 сезон

iTunes

1 сезон

1

iTunes

iTunes

iTunes

1 сезон

RePack

30

ИГРА 18+

pack

ВАЖНО

!!Акция!!

Alien_RageХит недели

RePack

MK11
pack

Забери бонус

RePack

jed

!!Акция!!

Alien_Rage

RePack

fifa19

RePack

Assassins Creed: Odyssey

RePack

NEED FOR SPEED™ PAYBACK

4 сезон

9 сезон

Бесстыжие 9 сезон

Все сериалы

все сериалы на PB.wtf

RePack

FAR CRY 5
  

Волшебный халат (Али Саттар Атакишиев) [1964, СССР, фантастика, приключения, DVDRip от AVP Studio] pb.wtf

Волшебный халат через торрент pb.wtf

Раздают: 1 [ 0 KB/s ]
Размер: 1.09 GB | Добавлен: 11 мес. назад | Торрент скачан:14 раз
Скачать  

19-11-2019 08:34 Волшебный халат Скачать торрент  

Волшебный халат
Страна: СССР
Производство: Азербайджанфильм

Жанр: фантастика, приключения
Год выпуска: 1964
Продолжительность: 01:15:43

Перевод: Не требуется
Cубтитры: нет
Оригинальная аудиодорожка: русский

Режиссер: Али Саттар Атакишиев

В ролях:
Азер Курбанов, Солмаз Хатамова, Коля Логинов, Юсиф Шейхов, Алиага Агаев, Анатолий Фалькович, Мовсун Санани, Ага Гусейн Джавадов, Исмаил Османлы, Гусейнага Садыхов, Мамед Садыков, Афрасияб Мамедов, Алекпер Гусейн-заде, Али Халилов...
Об актёрах подробней

Описание:
На праздник к пионерам приезжает известный фокусник Ио-Кио, который дарит ребятам «волшебный» халат. Надев этот халат можно перенестись и в прошлое и в будущее. О том, какие невероятные приключения происходят со школьнкиами Рашидом и Зарифой, когда они надевали «волшебный» халат, и рассказывает фильм.

Источник: DVD5 R5
Качество видео: DVDRip
Формат видео: AVI

Видео: 704х528 (4:3), 25,000 fps, XviD ~ 1857 kbps avg, 0.200 bit/pixel
Аудио: 48 kHz, Dolby Digital AC3 2.0, 192 kbps

Раздача от:
Общее
Полное имя : Volshebniy.halat.DVDRip_[New-team]_by_AVP_Studio.avi
Формат : AVI
Формат/Информация : Audio Video Interleave
Размер файла : 1,09 Гбайт
Продолжительность : 1 ч. 15 м.
Общий поток : 2059 Кбит/сек
Программа кодирования : VirtualDubMod 1.5.10.3 | www.virtualdub-fr.org || (build 2550/release)
Библиотека кодирования : VirtualDubMod build 2550/release

Видео
Идентификатор : 0
Формат : MPEG-4 Visual
Профиль формата : Advanced Simple@L5
Настройки формата : BVOP1 / Custom Matrix
Параметр BVOP формата : 1
Параметр QPel формата : Нет
Параметр GMC формата : Без точки перехода
Параметр матрицы формата : Выборочная
Идентификатор кодека : XVID
Идентификатор кодека/Подсказка : XviD
Продолжительность : 1 ч. 15 м.
Битрейт : 1857 Кбит/сек
Ширина : 704 пикселя
Высота : 528 пикселей
Соотношение сторон : 4:3
Частота кадров : 25,000 кадров/сек
Цветовое пространство : YUV
Субдискретизация насыщенности : 4:2:0
Битовая глубина : 8 бит
Тип развёртки : Прогрессивная
Метод сжатия : С потерями
Бит/(Пиксели*Кадры) : 0.200
Размер потока : 1006 Мбайт (90%)
Библиотека кодирования : XviD 73

Аудио
Идентификатор : 1
Формат : AC-3
Формат/Информация : Audio Coding 3
Коммерческое название : Dolby Digital
Идентификатор кодека : 2000
Продолжительность : 1 ч. 15 м.
Вид битрейта : Постоянный
Битрейт : 192 Кбит/сек
Каналы : 2 канала
ChannelLayout : L R
Частота : 48,0 КГц
Частота кадров : 31,250 кадров/сек (1536 SPF)
Битовая глубина : 16 бит
Метод сжатия : С потерями
Размер потока : 104 Мбайт (9%)
Выравнивание : Разделение по промежуткам
Продолжительность промежутка : 40 мс. (1,00 видеокадр)
Время предзагрузки промежутка : 500 мс
pb.wtf



Скачать Волшебный халат через торрент http://a.radikal.ru/a00/1911/3b/116172d86b8c.png Скачать фильм Волшебный халат через торрент бесплантно в хорошем качестве Описание:На праздник к пионерам приезжает известный фокусник Ио-Кио, который дарит ребятам «волшебный» халат. Надев этот халат можно ... 5 10 1
Info! Золотая раздача, скачанное не засчитывается.
Торрент: Зарегистрирован [2019-11-19 08:34] · скачан: 14 раз
Статус: √ проверено
Размер: 1.09 GB
Как cкачать? Как скачать Волшебный халат через торрент | qTorrent

% Раздел Тема Автор DL S | L
Кино СССР [ 1.09 GB ] Волшебный халат [1964 СССР DVDRip-AVC от AVP Studio] AVP Studio Скачать
1 | 0

28-11-2019 20:33  

Отключить всю рекламу на сайте

    Дорогой пользователь! Огромная просьба, поблагодарите релизера, оцените раздачу и оставьте свои комментарий, если Вы скачали Волшебный халат через торрент бесплатно! Внесите свою лепту в развитие PiratBit!
    Комментировать посты могут только пользователи прошедшие не сложную регистрацию
    Показать сообщения:    

    Волшебный халат через торрент
    Скачать бесплатно Волшебный халат
    Волшебный халат скачать торрент
    Волшебный халат смотреть онлайн
    Cкачать фильм Волшебный халат бесплатно
    Волшебный халат скачать торрент в хорошем качестве
    Волшебный халат смотреть онлайн бесплатно в хорошем качестве


    Вы не можете начинать темы
    Вы не можете отвечать на сообщения
    Вы не можете редактировать свои сообщения
    Вы не можете удалять свои сообщения
    Вы не можете голосовать в опросах
    Вы не можете прикреплять файлы к сообщениям
    Вы можете скачивать файлы