Ссылка на приватное зеркало всего за 1$. Внимание количество ограничено!!!

OK

1+1

iTunes

мы

OK

1

WEB-DLRip

Джокер

Пифагор

Ведьмак / The Witcher сериал

Лицензия

ПШазам

ОК

Оно 2

iTunes

30
pack

Вам бонус

ВАЖНО

!!Акция!!

Alien_RageХит недели

RePack

Resident Evil 21

ИГРА 18+

pack

RePack

jed

!!Акция!!

Alien_Rage

RePack

fifa19

RePack

Assassins Creed: Odyssey

RePack

NEED FOR SPEED™ PAYBACK

4 сезон

9 сезон

Бесстыжие 9 сезон

Все сериалы

все сериалы на PB.wtf

RePack

FAR CRY 5
  

Оно 2 / It Chapter Two (Андрес Мускетти) [2019, ужасы, WEB-DL 1080p] [AMAZON Version] DUB (rus, ukr) [iTunes] +MVO [HDRezka Studio] pb.wtf

Оно 2 через торрент pb.wtf

Раздают: 10 [ 0 KB/s ]
Размер: 10.57 GB | Добавлен: 2 мес. 1 д. назад | Торрент скачан:1009 раз
Скачать  

19-11-2019 13:01 Оно 2 Скачать торрент  

Оно 2 / It Chapter Two
Год выпуска: 2019
Страна: Канада, США
Студия: KatzSmith Productions, Lin Pictures, New Line Cinema
Жанр: ужасы
Продолжительность: 02:49:21
Перевод:

#1: Дублированный | iTunes
#2: Профессиональный (многоголосый) | HDRezka Studio

Субтитры: Русские (2 x Forced, 2 x full), украинские (Forced), английские

Режиссер: Андрес Мускетти

rating

В ролях: Джессика Честейн, Джеймс МакЭвой, Билл Хэйдер, Айзая Мустафа, Джей Райан, Джеймс Рэнсон, Энди Бин, Билл Скарсгард, Джейден Мартелл, Уайатт Олефф, Джек Дилан Грейзер, Финн Вулфард, София Лиллис, Чоузен Джейкобс, Джереми Рэй Тейлор, Тич Грант, Николас Хэмилтон, Хавьер Ботет, Тейлор Фрэй, Молли Эткинсон, Люк Росслер, Джесс Вейкслер

Описание: Проходит 27 лет после первой встречи ребят с демоническим Пеннивайзом. Они уже выросли, и у каждого своя жизнь. Но неожиданно их спокойное существование нарушает странный телефонный звонок, который заставляет их вновь собраться вместе.

Качество: WEB-DL 1080p | AMAZON Version
Формат: MKV

Видео: MPEG-4 AVC, 1920x800, 7332 Kbit/s, 23.976 fps
Аудио#1: 48 kHz, AC3, 5.1, 384 Kbps | Дублированный | RUS |
Аудио#2: 48 kHz, AC3, 2.0, 192 Kbps | HDRezka Studio | RUS |
Аудио#3: 48 kHz, AC3, 5.1, 384 Kbps | Дублированный | UKR |
Аудио#4: 48 kHz, E-AC3, 5.1, 640 Kbps | Оригинал | ENG |
скриншот  скриншот  скриншот  скриншот  скриншот  

General
Unique ID : 210202944031757245283554808628548798952 (0x9E239D4B581EC04019AB7D575EA509E8)
Complete name : D:Video111It.Chapter.Two.2019.AMZN.WEB-DL.1080p.seleZen.mkv
Format : Matroska
Format version : Version 4
File size : 10.6 GiB
Duration : 2 h 49 min
Overall bit rate : 8 935 kb/s
Movie name : It Chapter Two 2019 from селезень
Encoded date : UTC 2019-11-19 13:26:23
Writing application : mkvmerge v40.0.0 ('Old Town Road + Pony') 64-bit
Writing library : libebml v1.3.9 + libmatroska v1.5.2

Video
ID : 1
Format : AVC
Format/Info : Advanced Video Codec
Format profile : High@L4
Format settings : CABAC / 4 Ref Frames
Format settings, CABAC : Yes
Format settings, Reference : 4 frames
Codec ID : V_MPEG4/ISO/AVC
Duration : 2 h 49 min
Bit rate mode : Constant
Bit rate : 7 332 kb/s
Nominal bit rate : 10 000 kb/s
Width : 1 920 pixels
Height : 800 pixels
Display aspect ratio : 2.40:1
Frame rate mode : Constant
Frame rate : 23.976 (24000/1001) FPS
Color space : YUV
Chroma subsampling : 4:2:0
Bit depth : 8 bits
Scan type : Progressive
Bits/(Pixel*Frame) : 0.199
Stream size : 8.67 GiB (82%)
Language : English
Default : Yes
Forced : No
Color range : Limited
Color primaries : BT.709
Transfer characteristics : BT.709
Matrix coefficients : BT.709

Audio #1
ID : 2
Format : AC-3
Format/Info : Audio Coding 3
Commercial name : Dolby Digital
Codec ID : A_AC3
Duration : 2 h 49 min
Bit rate mode : Constant
Bit rate : 384 kb/s
Channel(s) : 6 channels
Channel layout : L R C LFE Ls Rs
Sampling rate : 48.0 kHz
Frame rate : 31.250 FPS (1536 SPF)
Bit depth : 16 bits
Compression mode : Lossy
Stream size : 465 MiB (4%)
Title : Dub
Language : Russian
Service kind : Complete Main
Default : Yes
Forced : Yes

Audio #2
ID : 3
Format : AC-3
Format/Info : Audio Coding 3
Commercial name : Dolby Digital
Codec ID : A_AC3
Duration : 2 h 49 min
Bit rate mode : Constant
Bit rate : 192 kb/s
Channel(s) : 2 channels
Channel layout : L R
Sampling rate : 48.0 kHz
Frame rate : 31.250 FPS (1536 SPF)
Bit depth : 16 bits
Compression mode : Lossy
Stream size : 233 MiB (2%)
Title : MVO
Language : Russian
Service kind : Complete Main
Default : No
Forced : No

Audio #3
ID : 4
Format : AC-3
Format/Info : Audio Coding 3
Commercial name : Dolby Digital
Codec ID : A_AC3
Duration : 2 h 49 min
Bit rate mode : Constant
Bit rate : 384 kb/s
Channel(s) : 6 channels
Channel layout : L R C LFE Ls Rs
Sampling rate : 48.0 kHz
Frame rate : 31.250 FPS (1536 SPF)
Bit depth : 16 bits
Compression mode : Lossy
Stream size : 465 MiB (4%)
Title : Dub
Language : Ukrainian
Service kind : Complete Main
Default : No
Forced : No

Audio #4
ID : 5
Format : E-AC-3
Format/Info : Enhanced AC-3
Commercial name : Dolby Digital Plus
Codec ID : A_EAC3
Duration : 2 h 49 min
Bit rate mode : Constant
Bit rate : 640 kb/s
Channel(s) : 6 channels
Channel layout : L R C LFE Ls Rs
Sampling rate : 48.0 kHz
Frame rate : 31.250 FPS (1536 SPF)
Compression mode : Lossy
Stream size : 775 MiB (7%)
Title : Original
Language : English
Service kind : Complete Main
Default : No
Forced : No

Text #1
ID : 6
Format : UTF-8
Codec ID : S_TEXT/UTF8
Codec ID/Info : UTF-8 Plain Text
Duration : 2 h 48 min
Bit rate : 1 b/s
Count of elements : 68
Stream size : 2.40 KiB (0%)
Title : Forced v.1
Language : Russian
Default : Yes
Forced : Yes

Text #2
ID : 7
Format : UTF-8
Codec ID : S_TEXT/UTF8
Codec ID/Info : UTF-8 Plain Text
Duration : 2 h 41 min
Bit rate : 1 b/s
Count of elements : 48
Stream size : 2.13 KiB (0%)
Title : Forced v.2
Language : Russian
Default : No
Forced : No

Text #3
ID : 8
Format : UTF-8
Codec ID : S_TEXT/UTF8
Codec ID/Info : UTF-8 Plain Text
Duration : 2 h 48 min
Bit rate : 76 b/s
Count of elements : 2332
Stream size : 94.3 KiB (0%)
Title : Full v.1
Language : Russian
Default : No
Forced : No

Text #4
ID : 9
Format : UTF-8
Codec ID : S_TEXT/UTF8
Codec ID/Info : UTF-8 Plain Text
Duration : 2 h 44 min
Bit rate : 72 b/s
Count of elements : 1705
Stream size : 87.9 KiB (0%)
Title : Full [Focs]
Language : Russian
Default : No
Forced : No

Text #5
ID : 10
Format : UTF-8
Codec ID : S_TEXT/UTF8
Codec ID/Info : UTF-8 Plain Text
Duration : 2 h 48 min
Bit rate : 1 b/s
Count of elements : 67
Stream size : 2.40 KiB (0%)
Title : Forced
Language : Ukrainian
Default : No
Forced : No

Text #6
ID : 11
Format : UTF-8
Codec ID : S_TEXT/UTF8
Codec ID/Info : UTF-8 Plain Text
Duration : 2 h 44 min
Bit rate : 49 b/s
Count of elements : 2404
Stream size : 59.4 KiB (0%)
Title : Full
Language : English
Default : No
Forced : No

Text #7
ID : 12
Format : UTF-8
Codec ID : S_TEXT/UTF8
Codec ID/Info : UTF-8 Plain Text
Duration : 2 h 44 min
Bit rate : 59 b/s
Count of elements : 2828
Stream size : 71.5 KiB (0%)
Title : SDH
Language : English
Default : No
Forced : No

Menu
00:00:00.000 : en:Studio Logos
00:00:21.000 : en:September 1989
00:02:15.000 : en:Derry Carnival
00:07:32.000 : en:It Comes Back
00:08:55.000 : en:Title Sequence
00:09:08.000 : en:Bill on Set
00:11:50.000 : en:Eddie Speeds
00:12:54.000 : en:Richie on Stage
00:14:27.000 : en:Hanscom & Associates
00:15:44.000 : en:Stanley's Bath
00:18:51.000 : en:Beverly's Husband
00:22:21.000 : en:Henry's Return
00:26:00.000 : en:Jade of the Orient
00:30:27.000 : en:Fortune Cookies
00:36:53.000 : en:Eddie's Fan
00:39:58.000 : en:Firefly
00:43:30.000 : en:Jailbreak
00:44:20.000 : en:Beverly Shares a Revelation
00:46:07.000 : en:Chudd
00:51:36.000 : en:Dead Lights
00:54:23.000 : en:Barrens Club House
01:01:26.000 : en:Token Hunting
01:03:04.000 : en:Beverly's Home
01:08:59.000 : en:Tea Time
01:12:25.000 : en:Richie's Secret
01:16:58.000 : en:Silver
01:19:20.000 : en:A Warning
01:24:38.000 : en:Summer School
01:29:20.000 : en:January Embers
01:31:28.000 : en:Preion
01:38:03.000 : en:First Kiss
01:40:59.000 : en:Bowers
01:43:09.000 : en:Fun House
01:46:32.000 : en:Bar Mitzvah
01:49:10.000 : en:Fire
01:52:25.000 : en:Neibolt Street
01:59:32.000 : en:Into the Sewers
02:04:14.000 : en:Ritual
02:13:39.000 : en:Split Up
02:22:36.000 : en:If You Believe
02:27:41.000 : en:Clown
02:35:16.000 : en:Swimmng
02:40:02.000 : en:Stanley's Message
02:44:50.000 : en:End Credits

pb.wtf



Скачать Оно 2 через торрент https://a.radikal.ru/a29/1911/fe/9cb2ca5ba608.jpg Скачать фильм Оно 2 через торрент бесплантно в хорошем качестве Описание: Проходит 27 лет после первой встречи ребят с демоническим Пеннивайзом. Они уже выросли, и у каждого своя жизнь. Но неожиданно их ... 9.8 10 40
Info! Золотая раздача, скачанное не засчитывается.
Торрент: Зарегистрирован [2019-11-19 19:15] · скачан: 1 009 раз
Статус: √ проверено
Размер: 10.57 GB
Как cкачать? Как скачать Оно 2 через торрент | qTorrent

% Раздел Тема Автор DL S | L
Фильмы 2019-2020 [DVDrip, WEB-DLRip, HDrip] (DUB, MVO) [ 2.91 GB ] Оно 2 / It Chapter Two [2019 BDRip] DUB [ BD EUR] bober100 Скачать
3 | 1
Фильмы (Blu-ray, BD-Remux, HDDVD) [ 37.2 GB ] Оно 2 / It Chapter Two [2019 Blu-ray EUR 1080p] DUB [] bober100 Скачать
1 | 0
Ultra HD (UHD: 2K, 4K, 8K) — видео сверхвысокой чёткости [ 24.23 GB ] Оно 2 / It Chapter Two [2019 UHD BDRip 2160p] DUB [] + MVO [HDRezka Studio] sheker187 Скачать
1 | 4
Ultra HD (UHD: 2K, 4K, 8K) — видео сверхвысокой чёткости [ 69.53 GB ] Оно 2 / It Chapter Two [2019 UHD BDRemux 2160p] DUB [] +MVO [HDRezka Studio] bober100 Скачать
2 | 0
Фильмы 2019-2020 [DVDrip, WEB-DLRip, HDrip] (DUB, MVO) [ 1.46 GB ] Оно 2 / It Chapter Two [2019 BDRip] - [] Twi7ter Скачать
32 | 0
Ultra HD (UHD: 2K, 4K, 8K) — видео сверхвысокой чёткости [ 74.06 GB ] Оно 2 / It Chapter Two [2019 UHD BDRemux 2160p] [Dolby Vision] DUB + MVO [HDRezka Studio] sheker187 Скачать
2 | 0
Ultra HD (UHD: 2K, 4K, 8K) — видео сверхвысокой чёткости [ 63.98 GB ] Оно 2 / It Chapter Two [2019 UHD BDRemux 2160p] [Dolby Vision TV] bober100 Скачать
2 | 0


Последний раз редактировалось: bober100 (2019-11-20 11:01), всего редактировалось 1 раз

28-11-2019 20:33  

Отключить всю рекламу на сайте

20-11-2019 10:50 Оно 2 Скачать торрент  

кто посмотрел? что по качеству?pb.wtf



20-11-2019 11:46 Оно 2 Скачать торрент  

xalex1930 писал(а):

кто посмотрел? что по качеству?

А что может быть не так с качеством? WEB-DL это запись из "айтюнса" в 99% случаев. А "айтюнс" транслирует в отличном качествеpb.wtf



20-11-2019 14:57 Оно 2 Скачать торрент  

В чем отличие версии AMAZON ?pb.wtf



25-11-2019 17:09 Оно 2 Скачать торрент  

Не теряйте время на это.pb.wtf



26-11-2019 15:01 Оно 2 Скачать торрент  

hichniy писал(а):

Не теряйте время на это.

Ок, раз сам hichniy говорит не смотреть, то фильм и правда полное дно pb.wtf



    Дорогой пользователь! Огромная просьба, поблагодарите релизера, оцените раздачу и оставьте свои комментарий, если Вы скачали Оно 2 через торрент бесплатно! Внесите свою лепту в развитие PiratBit!
    Комментировать посты могут только пользователи прошедшие не сложную регистрацию
    Показать сообщения:    

    Оно 2 через торрент
    Скачать бесплатно Оно 2
    Оно 2 скачать торрент
    Оно 2 смотреть онлайн
    Cкачать фильм Оно 2 бесплатно
    Оно 2 скачать торрент в хорошем качестве
    Оно 2 смотреть онлайн бесплатно в хорошем качестве


    Вы не можете начинать темы
    Вы не можете отвечать на сообщения
    Вы не можете редактировать свои сообщения
    Вы не можете удалять свои сообщения
    Вы не можете голосовать в опросах
    Вы не можете прикреплять файлы к сообщениям
    Вы можете скачивать файлы