Ссылка на приватное зеркало всего за 1$. Внимание количество ограничено!!!

OK

1+1

iTunes

мы

OK

1

WEB-DLRip

Джокер

Пифагор

Ведьмак / The Witcher сериал

Лицензия

ПШазам

ОК

Оно 2

iTunes

30
pack

Вам бонус

ВАЖНО

!!Акция!!

Alien_RageХит недели

RePack

Resident Evil 21

ИГРА 18+

pack

RePack

jed

RePack

fifa19

RePack

Assassins Creed: Odyssey

RePack

NEED FOR SPEED™ PAYBACK

4 сезон

9 сезон

Бесстыжие 9 сезон

Все сериалы

все сериалы на PB.wtf

RePack

FAR CRY 5
  

Хулиганье / The Young Offenders / Сезон: 2 / Серии: 1-6 из 6 (Питер Футт) [2019, Комедия, WEBRip] [MVO] (Ozz) pb.wtf

Хулиганье через торрент pb.wtf

Раздают: 1 [ 0 KB/s ]
Размер: 2.8 GB | Добавлен: 9 д. назад | Торрент скачан:5 раз
Скачать  

19-11-2019 17:11 Хулиганье Скачать торрент  

The Young Offenders

Год выхода: 2019
Страна
: Великобритания, Ирландия
Жанр
: комедия
Продолжительность: 1 x ~ 00:31:00
Перевод: Профессиональный (многоголосый закадровый) Ozz
Режиссер: Питер Футт

В ролях: Алекс Мёрфи, Крис Уолли, Jennifer Barry, Хилари Роуз, Доминик Макхейл, Demi Isaac Oviawe, П.Дж. Галлахер, Орла Фицджералд, Шэйн Кэйси, Эйприл Келли и др.


Описание
: Старшеклассники Конор и Джок не любят школу. Они проворачивают знатные аферы и не мирятся с действующими правилами. Каждый новый день для них - очередное приключение. Трудные учебные будни и не менее сложная семейная жизнь заставляет парней придумывать развлечения для самих себя. Правда, пускаясь в очередное приключение, они обрекают себя на серьезные проблемы. Выпутываться предстоит, как это обычно бывает, в весьма комичной обстановке, ведь никто не воспринимает серьезно главных персонажей, однако те порой ведут себя крайне вызывающе! Юные хулиганы готовы к реализации очередной авантюрной идеи.

rating

Качество: WEBRip
Формат: AVI
Видео кодек: XvID
Аудио кодек: AC3
Видео: XviD, ~ 1910 Кбит/с, 720x384
Аудио: Russian 48 kHz, AC3 , 2 channels, 192 kbps |Ozz|
General
Complete name : E:\The.Young.Offenders.S02.XviD.WEBRip.Ozz\The.Young.Offenders.S02E01.XviD.WEBRip.Ozz.avi
Format : AVI
Format/Info : Audio Video Interleave
File size : 467 MiB
Duration : 29 min 43 s
Overall bit rate : 2 198 kb/s
Writing application : Lavf56.36.100

Video
ID : 0
Format : xvid
Codec ID : xvid
Duration : 29 min 43 s
Bit rate : 1 910 kb/s
Width : 720 pixels
Height : 384 pixels
Display aspect ratio : 1.85:1
Frame rate : 50.000 FPS
Scan type : Progressive
Bits/(Pixel*Frame) : 0.138
Stream size : 406 MiB (87%)

Audio
ID : 1
Format : AC-3
Format/Info : Audio Coding 3
Format settings, Endianness : Big
Codec ID : 2000
Duration : 29 min 43 s
Bit rate mode : Constant
Bit rate : 192 kb/s
Channel(s) : 2 channels
Channel positions : Front: L R
Sampling rate : 48.0 kHz
Frame rate : 31.250 FPS (1536 SPF)
Bit depth : 16 bits
Compression mode : Lossy
Stream size : 40.8 MiB (9%)
Alignment : Aligned on interleaves
Title : MVO Ozz
Service kind : Complete Main

скриншот  скриншот  скриншот  
Внимание! Раздача ведётся путём добавления новых серий; при каждом добавлении создаётся новый торрент. Чтобы начать докачку новой серии, пользователям необходимо сделать следующее:
(1) остановить скачивание,
(2) удалить старый торрент у себя из клиента (старые серии удалять не надо),
(3) скачать новый торрент и запустить его у себя в клиенте вместо старого, при этом указать клиенту путь в старую папку куда и должно происходить скачивание новых серий.

Ваш клиент при этом должен произвести хеширование (проверку) старой папки (если не производит сам - помогите ему сделать это), и будет докачивать только те серии которых у вас ещё нет. Старые серии при этом не удаляются, а продолжают раздаваться!

Eсли вы уже удалили старые серии, то предотвратить повторную закачку старых серий можно, отжав галочку в соответствующих местах при запуске нового торрента. По возможности, желательно не удалять старые серии как можно дольше чтобы релизёр не столько продолжал раздавать старые серии, а смог сконцентрироваться на новых.
pb.wtf



Скачать Хулиганье через торрент https://i1.imageban.ru/out/2019/01/09/150ca8c31b1be50077c619a7f7fcea2f.jpg Скачать фильм Хулиганье через торрент бесплантно в хорошем качестве Описание: Старшеклассники Конор и Джок не любят школу. Они проворачивают знатные аферы и не мирятся с действующими правилами. Каждый новый ... 9.8 10 4
Торрент: Зарегистрирован [2020-01-14 15:53] · скачан: 5 раз
Статус: √ проверено
Размер: 2.8 GB
Как cкачать? Как скачать Хулиганье через торрент | qTorrent



Последний раз редактировалось: killermax2013 (2019-12-14 22:17), всего редактировалось 1 раз

28-11-2019 20:33  

Отключить всю рекламу на сайте


    Дорогой пользователь! Огромная просьба, поблагодарите релизера, оцените раздачу и оставьте свои комментарий, если Вы скачали Хулиганье через торрент бесплатно! Внесите свою лепту в развитие PiratBit!
    Комментировать посты могут только пользователи прошедшие не сложную регистрацию
    Показать сообщения:    

    Хулиганье через торрент
    Скачать бесплатно Хулиганье
    Хулиганье скачать торрент
    Хулиганье смотреть онлайн
    Cкачать фильм Хулиганье бесплатно
    Хулиганье скачать торрент в хорошем качестве
    Хулиганье смотреть онлайн бесплатно в хорошем качестве


    Вы не можете начинать темы
    Вы не можете отвечать на сообщения
    Вы не можете редактировать свои сообщения
    Вы не можете удалять свои сообщения
    Вы не можете голосовать в опросах
    Вы не можете прикреплять файлы к сообщениям
    Вы можете скачивать файлы