Ссылка на приватное зеркало всего за 1$. Внимание количество ограничено!!!

iTunes

iTunes

iTunes

1

iTunes

iTunes

iTunes

WEBRip

iTunes

30
pack

$ от Little Big

ВАЖНО

!!Акция!!

Alien_RageХит недели

RePack

Resident Evil 21

ИГРА 18+

pack

RePack

jed

!!Акция!!

Alien_Rage

RePack

fifa19

RePack

Assassins Creed: Odyssey

RePack

NEED FOR SPEED™ PAYBACK

4 сезон

9 сезон

Бесстыжие 9 сезон

Все сериалы

все сериалы на PB.wtf

RePack

FAR CRY 5
  

Война миров / The War of the Worlds / Сезон: 1 / Серии: 1-3 из 3 (Крэйг Вивейрос) [2019, фантастика, драма, WEB-DL 1080p] MVO [Lostfilm] pb.wtf

Война миров через торрент pb.wtf

Размер: 8.6 GB | Добавлен: 7 мес. назад | Торрент скачан:88 раз
Скачать  

19-11-2019 19:40 Война миров Скачать торрент  

Война миров / The War of the Worlds
Год выпуска: 2019
Страна: Великобритания
Жанр: фантастика, драма
Продолжительность: ~ 00:55:00
Перевод: Профессиональный многоголосый | Lostfilm
Субтитры: отсутствуют

Режиссер: Крэйг Вивейрос

rating

В ролях: Рейф Сполл, Элинор Томлинсон, Филип Гаскойн, Джонатан Арис, Талия Блэр, Фрейя Аллан, Сэм Бенжамин, Роберт Карлайл, Руперт Грейвз Крэйг, Томас Ламберт и другие.

Описание: В центре истории — только начавшие совместную жизнь Джордж и Эми, которым приходится столкнуться с ужасом инопланетного вторжения.

Качество: WEB-DL 1080p
Формат: MKV

Видео: MPEG-4 AVC, 6800 Кбит/с, 1920x1080
Аудио#1: Русский (AC3, 2 ch, 384 Кбит/с)
Аудио#2: английский (AC3, 2 ch, 384 Кбит/с)
скриншот  скриншот  скриншот  скриншот  скриншот  
скриншот  

Общее
Уникальный идентификатор : 231490385695533163153187949533514710899 (0xAE276D335B17C1DFB31DF76EF47C3F73)
Полное имя : D:\The.War.of.the.Worlds.S01.1080p.LostFilm.TV\The.War.of.the.Worlds.S01E01.1080p.rus.LostFilm.TV.mkv
Формат : Matroska
Версия формата : Version 4 / Version 2
Размер файла : 2,89 Гбайт
Продолжительность : 54 м. 39 с.
Общий поток : 7566 Кбит/сек
Дата кодирования : UTC 2019-11-19 18:28:47
Программа кодирования : mkvmerge v9.5.0 ('Quiet Fire') 64bit
Библиотека кодирования : libebml v1.3.4 + libmatroska v1.4.5

Видео
Идентификатор : 1
Формат : AVC
Формат/Информация : Advanced Video Codec
Профиль формата : High@L4.1
Параметр CABAC формата : Да
Параметр RefFrames формата : 4 кадра
Идентификатор кодека : V_MPEG4/ISO/AVC
Продолжительность : 54 м. 39 с.
Битрейт : 6800 Кбит/сек
Ширина : 1920 пикселей
Высота : 1080 пикселей
Соотношение сторон : 16:9
Режим частоты кадров : Постоянный
Частота кадров : 25,000 кадров/сек
Цветовое пространство : YUV
Субдискретизация насыщенности : 4:2:0
Битовая глубина : 8 бит
Тип развёртки : Прогрессивная
Бит/(Пиксели*Кадры) : 0.131
Размер потока : 2,59 Гбайт (90%)
Библиотека кодирования : x264 core 112 r1834 a51816a
Настройки программы : cabac=1 / ref=4 / deblock=1:-3:-2 / analyse=0x3:0x113 / me=hex / subme=7 / psy=1 / psy_rd=1.00:0.00 / mixed_ref=1 / me_range=16 / chroma_me=1 / trellis=1 / 8x8dct=1 / cqm=0 / deadzone=21,11 / fast_pskip=1 / chroma_qp_offset=-2 / threads=12 / sliced_threads=0 / nr=0 / decimate=1 / interlaced=0 / constrained_intra=0 / bframes=5 / b_pyramid=2 / b_adapt=1 / b_bias=0 / direct=1 / weightb=1 / open_gop=0 / weightp=2 / keyint=250 / keyint_min=25 / scenecut=40 / intra_refresh=0 / rc_lookahead=40 / rc=2pass / mbtree=1 / bitrate=6800 / ratetol=1.0 / qcomp=0.60 / qpmin=0 / qpmax=51 / qpstep=4 / cplxblur=20.0 / qblur=0.5 / vbv_maxrate=10000 / vbv_bufsize=256000 / ip_ratio=1.40 / aq=1:1.00 / nal_hrd=none
Default : Да
Forced : Нет

Аудио #1
Идентификатор : 2
Формат : AC-3
Формат/Информация : Audio Coding 3
Расширение режима : CM (complete main)
Параметр Endianness формата : Big
Идентификатор кодека : A_AC3
Продолжительность : 54 м. 39 с.
Вид битрейта : Постоянный
Битрейт : 384 Кбит/сек
Каналы : 2 канала
Расположение каналов : Front: L R
Частота : 48,0 КГц
Частота кадров : 31,250 кадров/сек (1536 spf)
Метод сжатия : С потерями
Размер потока : 150 Мбайт (5%)
Default : Да
Forced : Нет

Аудио #2
Идентификатор : 3
Формат : AC-3
Формат/Информация : Audio Coding 3
Расширение режима : CM (complete main)
Параметр Endianness формата : Big
Идентификатор кодека : A_AC3
Продолжительность : 54 м. 39 с.
Вид битрейта : Постоянный
Битрейт : 384 Кбит/сек
Каналы : 2 канала
Расположение каналов : Front: L R
Частота : 48,0 КГц
Частота кадров : 31,250 кадров/сек (1536 spf)
Метод сжатия : С потерями
Размер потока : 150 Мбайт (5%)
Default : Нет
Forced : Нет

Внимание! Раздача ведётся путём добавления новых серий; при каждом добавлении создаётся новый торрент. Чтобы начать докачку новой серии, пользователям необходимо сделать следующее:
(1) остановить скачивание,
(2) удалить старый торрент у себя из клиента (старые серии удалять не надо),
(3) скачать новый торрент и запустить его у себя в клиенте вместо старого, при этом указать клиенту путь в старую папку куда и должно происходить скачивание новых серий.

Ваш клиент при этом должен произвести хеширование (проверку) старой папки (если не производит сам - помогите ему сделать это), и будет докачивать только те серии которых у вас ещё нет. Старые серии при этом не удаляются, а продолжают раздаваться!

Eсли вы уже удалили старые серии, то предотвратить повторную закачку старых серий можно, отжав галочку в соответсвующих местах при запуске нового торрента. По возможности, желательно не удалять старые серии как можно дольше чтобы релизёр не столько продолжал раздавать старые серии, а смог сконцентрироваться на новых.
pb.wtf



Скачать Война миров через торрент https://a.radikal.ru/a34/1910/83/06c353f34496.jpg Скачать фильм Война миров через торрент бесплантно в хорошем качестве Описание: В центре истории — только начавшие совместную жизнь Джордж и Эми, которым приходится столкнуться с ужасом инопланетного ... 10 10 8
Торрент: Зарегистрирован [2019-12-06 19:07] · скачан: 88 раз
Статус: √ проверено
Размер: 8.6 GB
Как cкачать? Как скачать Война миров через торрент | qTorrent

% Раздел Тема Автор DL S | L
Зарубежные сериалы [ 6.38 GB ] Война миров / The War of the Worlds / Сезон: 1 / Серии: 1-3 из 3 [2019 WEB-DL 1080p] MVO [SDI Media] bober100 Скачать
1 | 0
Зарубежные сериалы [ 2.49 GB ] Война миров / The War of the Worlds / Сезон: 1 / Серии: 1-3 из 3 [2019 WEB-DLRip] MVO [TVShows] bober100 Скачать
2 | 0
Зарубежные сериалы [ 8.55 GB ] Война миров / The War of the Worlds / Сезон: 1 / Серии: 1-3 из 3 [2019 WEB-DL 1080p] [MVO] killermax2013 Скачать
2 | 0

28-11-2019 20:33  

Отключить всю рекламу на сайте

    Дорогой пользователь! Огромная просьба, поблагодарите релизера, оцените раздачу и оставьте свои комментарий, если Вы скачали Война миров через торрент бесплатно! Внесите свою лепту в развитие PiratBit!
    Комментировать посты могут только пользователи прошедшие не сложную регистрацию
    Показать сообщения:    

    Война миров через торрент
    Скачать бесплатно Война миров
    Война миров скачать торрент
    Война миров смотреть онлайн
    Cкачать фильм Война миров бесплатно
    Война миров скачать торрент в хорошем качестве
    Война миров смотреть онлайн бесплатно в хорошем качестве


    Вы не можете начинать темы
    Вы не можете отвечать на сообщения
    Вы не можете редактировать свои сообщения
    Вы не можете удалять свои сообщения
    Вы не можете голосовать в опросах
    Вы не можете прикреплять файлы к сообщениям
    Вы можете скачивать файлы