Ссылка на приватное зеркало нашего сайта всего за 1$. Внимание количество ограничено!!!

2 сезон

iTunes

1 сезон

1

iTunes

iTunes

iTunes

1 сезон

RePack

30

ИГРА 18+

pack

ВАЖНО

!!Акция!!

Alien_RageХит недели

RePack

MK11
pack

Забери бонус

RePack

jed

!!Акция!!

Alien_Rage

RePack

fifa19

RePack

Assassins Creed: Odyssey

RePack

NEED FOR SPEED™ PAYBACK

4 сезон

9 сезон

Бесстыжие 9 сезон

Все сериалы

все сериалы на PB.wtf

RePack

FAR CRY 5
  

Всё для вас (Мария Барабанова) [1964, СССР, мюзикл, комедия, DVDRip-AVC от AVP Studio] pb.wtf

Всё для вас через торрент pb.wtf

Раздают: 6 [ 1 KB/s ]
Размер: 1.09 GB | Добавлен: 11 мес. назад | Торрент скачан:15 раз
Скачать  

20-11-2019 09:20 Всё для вас Скачать торрент  

Всё для вас
Страна: СССР
Производство: Киностудия им. М. Горького

Жанр: мюзикл, комедия
Год выпуска: 1964
Продолжительность: 01:20:24

Перевод: Не требуется
Cубтитры: нет
Оригинальная аудиодорожка: русский

Режиссер: Мария Барабанова

В ролях:
Мария Барабанова, Татьяна Пельтцер, Юрий Беркун, Людмила Черепанова, Татьяна Гаврилова, Леонид Куравлёв, Борис Иванов, Ольга Аросева, Николай Кодин, Константин Карельских, Борис Бибиков, Юрий Саранцев, Леонид Харитонов, Валерий Козинец, Анатолий Обухов, Борис Бушмелёв, Николай Коршилов...
Об актёрах подробней

Описание:
Маша Барашкина обладает необыкновенными организаторскими способностями. Она помогла открыть детскую больницу, стадион, ателье. А теперь Барашкина должна возглавить комбинат бытового обслуживания «Всё для Вас».

Источник: DVD5 R5
Качество видео: DVDRip-AVC
Формат видео: MKV

Видео: 704->760х570 (4:3), 25,000 fps, H264 ~ 1745 kbps avg, 0.174 bit/pixel
Аудио: 48 kHz, Dolby Digital AC3 2.0, 192 kbps

Раздача от:
Общее
Полное имя : Vse.dlya.vas.1964.DVDRip-AVC_[New-team]_by_AVP_Studio.mkv
Формат : Matroska
Версия формата : Version 2
Размер файла : 1,09 Гбайт
Продолжительность : 1 ч. 20 м.
Общий поток : 1939 Кбит/сек
Дата кодирования : UTC 2019-11-19 12:03:23
Программа кодирования : mkvmerge v6.1.0 ('Old Devil') built on Mar 4 2013 09:10:42
Библиотека кодирования : libebml v1.3.0 + libmatroska v1.4.0

Видео
Идентификатор : 1
Формат : AVC
Формат/Информация : Advanced Video Codec
Профиль формата : High@L4.1
Настройки формата : CABAC / 10 Ref Frames
Параметр CABAC формата : Да
Параметр RefFrames формата : 10 кадров
Идентификатор кодека : V_MPEG4/ISO/AVC
Продолжительность : 1 ч. 20 м.
Битрейт : 1745 Кбит/сек
Ширина : 704 пикселя
Высота : 570 пикселей
Соотношение сторон : 4:3
Режим частоты кадров : Постоянный
Частота кадров : 25,000 кадров/сек
Цветовое пространство : YUV
Субдискретизация насыщенности : 4:2:0
Битовая глубина : 8 бит
Тип развёртки : Прогрессивная
Бит/(Пиксели*Кадры) : 0.174
Размер потока : 982 Мбайт (88%)
Библиотека кодирования : x264 core 157 r2932 303c484
Настройки программы : cabac=1 / ref=10 / deblock=1:-2:-1 / analyse=0x3:0x113 / me=umh / subme=10 / psy=1 / psy_rd=1.00:0.00 / mixed_ref=1 / me_range=32 / chroma_me=1 / trellis=2 / 8x8dct=1 / cqm=0 / deadzone=21,11 / fast_pskip=1 / chroma_qp_offset=-2 / threads=6 / lookahead_threads=1 / sliced_threads=0 / nr=0 / decimate=0 / interlaced=0 / bluray_compat=0 / constrained_intra=0 / bframes=8 / b_pyramid=2 / b_adapt=2 / b_bias=0 / direct=3 / weightb=1 / open_gop=0 / weightp=2 / keyint=250 / keyint_min=25 / scenecut=40 / intra_refresh=0 / rc=2pass / mbtree=0 / bitrate=1745 / ratetol=1.0 / qcomp=0.60 / qpmin=0 / qpmax=69 / qpstep=4 / cplxblur=20.0 / qblur=0.5 / ip_ratio=1.40 / pb_ratio=1.30 / aq=1:1.00
Default : Да
Forced : Нет

Аудио
Идентификатор : 2
Формат : AC-3
Формат/Информация : Audio Coding 3
Коммерческое название : Dolby Digital
Идентификатор кодека : A_AC3
Продолжительность : 1 ч. 20 м.
Вид битрейта : Постоянный
Битрейт : 192 Кбит/сек
Каналы : 2 канала
ChannelLayout : L R
Частота : 48,0 КГц
Частота кадров : 31,250 кадров/сек (1536 SPF)
Битовая глубина : 16 бит
Метод сжатия : С потерями
Размер потока : 110 Мбайт (10%)
Default : Да
Forced : Нет
pb.wtf



Скачать Всё для вас через торрент http://b.radikal.ru/b01/1911/88/6a8ba5f973e1.png Скачать фильм Всё для вас через торрент бесплантно в хорошем качестве Описание:Маша Барашкина обладает необыкновенными организаторскими способностями. Она помогла открыть детскую больницу, стадион, ателье. А ... 5 10 1
Торрент: Зарегистрирован [2019-11-20 09:20] · скачан: 15 раз
Статус: √ проверено
Размер: 1.09 GB
Как cкачать? Как скачать Всё для вас через торрент | qTorrent

% Раздел Тема Автор DL S | L
Кино СССР [ 1.09 GB ] Всё для вас [1964 СССР мюзикл DVDRip от AVP Studio] AVP Studio Скачать
1 | 4

28-11-2019 20:33  

Отключить всю рекламу на сайте

    Дорогой пользователь! Огромная просьба, поблагодарите релизера, оцените раздачу и оставьте свои комментарий, если Вы скачали Всё для вас через торрент бесплатно! Внесите свою лепту в развитие PiratBit!
    Комментировать посты могут только пользователи прошедшие не сложную регистрацию
    Показать сообщения:    

    Всё для вас через торрент
    Скачать бесплатно Всё для вас
    Всё для вас скачать торрент
    Всё для вас смотреть онлайн
    Cкачать фильм Всё для вас бесплатно
    Всё для вас скачать торрент в хорошем качестве
    Всё для вас смотреть онлайн бесплатно в хорошем качестве


    Вы не можете начинать темы
    Вы не можете отвечать на сообщения
    Вы не можете редактировать свои сообщения
    Вы не можете удалять свои сообщения
    Вы не можете голосовать в опросах
    Вы не можете прикреплять файлы к сообщениям
    Вы можете скачивать файлы