новый адрес
Ссылка на приватное зеркало всего за 1$. Внимание количество ограничено!!!

iTunes

1+1

iTunes

мы

WEB-DL

1

iTunes

Чернобыль

iTunes

Ральф против интернета

Лицензия

ПШазам

Лицензия

Оно 2

Лицензия

30
pack

Вам бонус

ВАЖНО

!!Акция!!

Alien_RageХит недели

RePack

Resident Evil 21

ИГРА 18+

pack

RePack

jed

!!Акция!!

Alien_Rage

RePack

fifa19

RePack

Assassins Creed: Odyssey

RePack

NEED FOR SPEED™ PAYBACK

3 сезон

9 сезон

Бесстыжие 9 сезон

Все сериалы

все сериалы на PB.wtf

RePack

FAR CRY 5
Ребята, катастрофически не хватает 1900р. для оплаты серверов за Октябрь (всвязи с блокировками трафик упал в 3 раза), 1-2р., выручайте.
  

В прямом эфире / Late Night (Ниша Ганатра) [2019, Драма, комедия, BDRip] MVO [iTunes] pb.wtf

В прямом эфире через торрент pb.wtf

Раздают: 12 [ 0.9 KB/s ]
Размер: 1.44 GB | Добавлен: 21 д. назад | Торрент скачан:174 раза
Скачать  

20-11-2019 19:52 В прямом эфире Скачать торрент  

В прямом эфире / Late Night
Год выпуска: 2019
Страна: США
Жанр: Драма, комедия
Продолжительность: 01:41:41
Перевод: Профессиональный многоголосый | iTunes
Субтитры: русские (форс. вшитые)

Режиссер: Ниша Ганатра

rating

В ролях: Эмма Томпсон, Минди Кейлинг, Джон Литгоу, Хью Дэнси, Рейд Скотт, Дэнис О’Хэр, Макс Казелла, Пол Уолтер Хаузер, Джон Ерли, Иа Пател и др.

Описание: Кэтрин Ньюбери является пионером и легендарным ведущим ночных ток-шоу. Когда ее обвиняют в том, что она «женщина, которая ненавидит женщин», она нанимает Молли. В мужском отделе сценаристов Молли становится первой женщиной. Но таких «косметических» изменений слишком мало для начальства. Грозная Кэтрин также сталкивается с реальностью низких рейтингов и её хотят заменить. Молли, в свою очередь, полна решимости помочь Кэтрин, оживив ее шоу.

Качество: BDRip
Формат: AVI

Видео: Xvid 73, 704x384, ~1636 kbps, 23,976 fps
Аудио: русский, AC3, 5.1 ch, 48 kHz, 384 kbps | iTunes
скриншот  скриншот  скриншот  скриншот  скриншот  

Общее
Полное имя : G:Torrent2LateNightBDRip.avi
Формат : AVI
Формат/Информация : Audio Video Interleave
Профиль формата : OpenDML
Размер файла : 1,44 Гбайт
Продолжительность : 1 ч. 41 м.
Общий поток : 2032 Кбит/сек
Программа кодирования : XviD4PSP 6.0 / 53.6.0

Видео
Идентификатор : 0
Формат : MPEG-4 Visual
Профиль формата : Advanced Simple@L5
Настройки формата : BVOP1 / Custom Matrix
Параметр BVOP формата : 1
Параметр QPel формата : Нет
Параметр GMC формата : Без точки перехода
Параметр матрицы формата : Выборочная
Идентификатор кодека : XVID
Идентификатор кодека/Подсказка : XviD
Продолжительность : 1 ч. 41 м.
Битрейт : 1636 Кбит/сек
Ширина : 704 пикселя
Высота : 384 пикселя
Соотношение сторон : 1,85:1
Частота кадров : 23,976 (23976/1000) кадра/сек
Цветовое пространство : YUV
Субдискретизация насыщенности : 4:2:0
Битовая глубина : 8 бит
Тип развёртки : Прогрессивная
Метод сжатия : С потерями
Бит/(Пиксели*Кадры) : 0.252
Размер потока : 1,16 Гбайт (81%)
Библиотека кодирования : XviD 73

Аудио
Идентификатор : 1
Формат : AC-3
Формат/Информация : Audio Coding 3
Параметр Endianness формата : Big
Идентификатор кодека : 2000
Продолжительность : 1 ч. 41 м.
Вид битрейта : Постоянный
Битрейт : 384 Кбит/сек
Каналы : 6 каналов
Расположение каналов : Front: L C R, Side: L R, LFE
Частота : 48,0 КГц
Частота кадров : 31,250 кадров/сек (1536 SPF)
Битовая глубина : 16 бит
Метод сжатия : С потерями
Размер потока : 279 Мбайт (19%)
Выравнивание : Соединение по промежуткам
Продолжительность промежутка : 32 мс. (0,77 видеокадр)

pb.wtf



Скачать В прямом эфире через торрент https://img15.lostpic.net/2019/11/20/9871e97558c050f685b49a549cc86d69.th.png Скачать фильм В прямом эфире через торрент бесплантно в хорошем качестве Описание: Кэтрин Ньюбери является пионером и легендарным ведущим ночных ток-шоу. Когда ее обвиняют в том, что она «женщина, которая ... 9.8 10 11
Торрент: Зарегистрирован [2019-11-20 19:52] · скачан: 174 раз
Статус: √ проверено
Размер: 1.44 GB
Как cкачать? Как скачать В прямом эфире через торрент | qTorrent

% Раздел Тема Автор DL S | L
Фильмы [HD 720p, 1080p] (Хороший звук DUB, MVO) [ 8.96 GB ] В прямом эфире / Late Night [2019 BDRip 1080p] MVO bober100 Скачать
3 | 1
Фильмы [HD 720p, 1080p] (Хороший звук DUB, MVO) [ 4.49 GB ] В прямом эфире / Late Night [2019 BDRip 720p] MVO bober100 Скачать
1 | 0

28-11-2019 20:33  

Отключить всю рекламу на сайте

    Дорогой пользователь! Огромная просьба, поблагодарите релизера, оцените раздачу и оставьте свои комментарий, если Вы скачали В прямом эфире через торрент бесплатно! Внесите свою лепту в развитие PiratBit!
    Комментировать посты могут только пользователи прошедшие не сложную регистрацию
    Показать сообщения:    

    В прямом эфире через торрент
    Скачать бесплатно В прямом эфире
    В прямом эфире скачать торрент
    В прямом эфире смотреть онлайн
    Cкачать фильм В прямом эфире бесплатно
    В прямом эфире скачать торрент в хорошем качестве
    В прямом эфире смотреть онлайн бесплатно в хорошем качестве


    Вы не можете начинать темы
    Вы не можете отвечать на сообщения
    Вы не можете редактировать свои сообщения
    Вы не можете удалять свои сообщения
    Вы не можете голосовать в опросах
    Вы не можете прикреплять файлы к сообщениям
    Вы можете скачивать файлы