Ссылка на приватное зеркало всего за 1$. Внимание количество ограничено!!!

OK

1+1

iTunes

мы

OK

1

WEB-DLRip

Джокер

Пифагор

Ведьмак / The Witcher сериал

iTunes

ПШазам

ОК

Оно 2

iTunes

30
pack

Вам бонус

ВАЖНО

!!Акция!!

Alien_RageХит недели

RePack

Resident Evil 21

ИГРА 18+

pack

RePack

jed

RePack

fifa19

RePack

Assassins Creed: Odyssey

RePack

NEED FOR SPEED™ PAYBACK

4 сезон

9 сезон

Бесстыжие 9 сезон

Все сериалы

все сериалы на PB.wtf

RePack

FAR CRY 5
  

Только вперёд (Максим Бриус) [2008 г., Боевик, детектив, драма, WEBRip] pb.wtf

Только вперёд через торрент pb.wtf

Раздают: 1 [ 0 KB/s ]
Размер: 1.37 GB | Добавлен: 2 мес. 6 д. назад | Торрент скачан:14 раз
Скачать  

21-11-2019 01:32 Только вперёд Скачать торрент  

Только вперёд
Год выпуска: 2008

Страна: Россия

Жанр: Боевик, детектив, драма

Продолжительность: 01:38:22

Режиссер: Максим Бриус

В ролях: Максим Дрозд, Сергей Кошонин, Анна Слынько, Андрей Федорцов, Анастасия Мельникова, Анна Лутцева, Юрий Оськин, Вадим Яковлев, Андрей Астраханцев, Роман Жилкин

Описание: Ухов внедрён в банду, занимающуюся продажей военных разработок и технологий за границу. Банда имеет свою «Боевую дружину». У Ухова тщательно проработанная "легенда". Ухов вживается в образ, работает, информирует МВД о происходящем в банде, но его задача - выйти на лидера - Генриха. Один из бандитов (Кулаков) становится его другом. Однажды, во время бандитской операции, в которой Ухов принимает участие, Кулаков спасает его от смерти, и они становятся ещё ближе. В Отделе МВД, которому поставляет информацию Ухов, его никто не знает, кроме Генерала, начальника Отдела. Выясняется, что в Отделе тоже есть шпион, работающий на Генриха. Благодаря ему Генрих узнаёт о том, что в банде есть предатель. Кто он, Генриху нужно выяснить это самому.
Качество: WEBRip
Формат: AVI
Видео: XviD, 1788 Кбит/с, 720x400
Аудио: Русский, AC-3, 2 ch, 192 Кбит/с
Видео
Идентификатор : 0
Формат : MPEG-4 Visual
Профиль формата : Advanced Simple@L5
Настройки формата : BVOP1 / Custom Matrix
Параметр BVOP формата : 1
Параметр QPel формата : Нет
Параметр GMC формата : Без точки перехода
Параметр матрицы формата : Выборочная
Идентификатор кодека : XVID
Идентификатор кодека/Подсказка : XviD
Продолжительность : 1 ч. 38 м.
Битрейт : 1788 Кбит/сек
Ширина : 720 пикселей
Высота : 400 пикселей
Соотношение сторон : 16:9
Частота кадров : 25,000 кадров/сек
Цветовое пространство : YUV
Субдискретизация насыщенности : 4:2:0
Битовая глубина : 8 бит
Тип развёртки : Прогрессивная
Метод сжатия : С потерями
Бит/(Пиксели*Кадры) : 0.248
Размер потока : 1,23 Гбайт (90%)
Библиотека кодирования : XviD 73

Аудио
Идентификатор : 1
Формат : AC-3
Формат/Информация : Audio Coding 3
Коммерческое название : Dolby Digital
Идентификатор кодека : 2000
Продолжительность : 1 ч. 38 м.
Вид битрейта : Постоянный
Битрейт : 192 Кбит/сек
Каналы : 2 канала
ChannelLayout : L R
Частота : 48,0 КГц
Частота кадров : 31,250 кадров/сек (1536 SPF)
Битовая глубина : 16 бит
Метод сжатия : С потерями
Размер потока : 135 Мбайт (10%)
Выравнивание : Разделение по промежуткам
Продолжительность промежутка : 40 мс. (1,00 видеокадр)
Время предзагрузки промежутка : 500 мс.
ServiceKind/String : Complete Main

скриншот   скриншот   скриншот   скриншот   скриншот  

pb.wtf



Скачать Только вперёд через торрент http://pic1.kartinco.top/images/12/jaj9g.jpg Скачать фильм Только вперёд через торрент бесплантно в хорошем качестве Описание: Ухов внедрён в банду, занимающуюся продажей военных разработок и технологий за границу. Банда имеет свою «Боевую дружину». У ... 10 10 2
Торрент: Зарегистрирован [2019-11-21 01:32] · скачан: 14 раз
Статус: √ проверено
Размер: 1.37 GB
Как cкачать? Как скачать Только вперёд через торрент | qTorrent

% Раздел Тема Автор DL S | L
Фильмы 2001-2005 [ 1.37 GB ] Ангелы Чарли 2: Только вперед / Charlie's Angels: Full Throttle [2003 DVDRip] sasha060 Скачать
1 | 0

28-11-2019 20:33  

Отключить всю рекламу на сайте


    Дорогой пользователь! Огромная просьба, поблагодарите релизера, оцените раздачу и оставьте свои комментарий, если Вы скачали Только вперёд через торрент бесплатно! Внесите свою лепту в развитие PiratBit!
    Комментировать посты могут только пользователи прошедшие не сложную регистрацию
    Показать сообщения:    

    Только вперёд через торрент
    Скачать бесплатно Только вперёд
    Только вперёд скачать торрент
    Только вперёд смотреть онлайн
    Cкачать фильм Только вперёд бесплатно
    Только вперёд скачать торрент в хорошем качестве
    Только вперёд смотреть онлайн бесплатно в хорошем качестве


    Вы не можете начинать темы
    Вы не можете отвечать на сообщения
    Вы не можете редактировать свои сообщения
    Вы не можете удалять свои сообщения
    Вы не можете голосовать в опросах
    Вы не можете прикреплять файлы к сообщениям
    Вы можете скачивать файлы