новый адрес
Ссылка на приватное зеркало всего за 1$. Внимание количество ограничено!!!

iTunes

1+1

iTunes

мы

WEB-DL

1

iTunes

Чернобыль

iTunes

Ральф против интернета

Лицензия

ПШазам

Лицензия

Оно 2

Лицензия

30
pack

Вам бонус

ВАЖНО

!!Акция!!

Alien_RageХит недели

RePack

Resident Evil 21

ИГРА 18+

pack

RePack

jed

!!Акция!!

Alien_Rage

RePack

fifa19

RePack

Assassins Creed: Odyssey

RePack

NEED FOR SPEED™ PAYBACK

3 сезон

9 сезон

Бесстыжие 9 сезон

Все сериалы

все сериалы на PB.wtf

RePack

FAR CRY 5
Ребята, катастрофически не хватает 1900р. для оплаты серверов за Октябрь (всвязи с блокировками трафик упал в 3 раза), 1-2р., выручайте.
  

Свидетель / Matewan (Джон Сэйлз) [1987, драма, история, вестерн, BDRip 720p by msltel] VO pb.wtf

Свидетель через торрент pb.wtf

Раздают: 1 [ 0 KB/s ]
Размер: 5.53 GB | Добавлен: 18 д. назад | Торрент скачан:21 раз
Скачать  

21-11-2019 06:49 Свидетель Скачать торрент  

Название: Свидетель
Оригинальное название: Matewan
Год выпуска: 1987
Страна: США
Жанр: драма, история, вестерн
Продолжительность: 02:13:07
Перевод: закадровый одноголосый

Режиссер: Джон Сэйлз
В ролях: Крис Купер, Джэймс Эрл, Мэри МакДауэлл, Уилл Олдхэм, Дэвид Стрэтэйрн, Кэн Джэнкинс, Гордон Клэпп, Кевин Тай, Джойн Сэйлз, Боб Гантон

О фильме: Фильм инсценирует события битвы при Мэтуоне, забастовки угольщиков в 1920 году в небольшом городке на холмах Западной Вирджинии.



Качество: BDRip 720p
Формат: MKV
Видео: MPEG-4 AVC, 5373 Kбит/с, 1280x690
Аудио 1: русский, AC3, 384 kbps, 6 ch, 48 kHz [закадровый одноголосый, Zerzia по переводу dooctoor aka Dr.Filin]
Аудио 2: английский, AC3, 192 kbps, 1 ch, 48 kHz [оригинал]
Субтитры 1: русские (dooctoor aka Dr.Filin)
Субтитры 2: английские
Главы/чаптеры
Общее
Уникальный идентификатор : 180463806517774989949072075472793496601 (0x87C4109C4ED02F339D80CCFC1CB3EC19)
Полное имя : D:\Video\Свидетель.1987.BDRip 720p by msltel.mkv
Формат : Matroska
Версия формата : Version 4
Размер файла : 5,53 Гбайт
Продолжительность : 2 ч. 13 м.
Общий поток : 5951 Кбит/сек
Название фильма : Rip by msltel
Дата кодирования : UTC 2019-11-20 15:53:13
Программа кодирования : mkvmerge v8.2.0 ('World of Adventure') 64bit
Библиотека кодирования : libebml v1.3.1 + libmatroska v1.4.2

Видео
Идентификатор : 1
Формат : AVC
Формат/Информация : Advanced Video Codec
Профиль формата : High@L4.1
Настройки формата : CABAC / 9 Ref Frames
Параметр CABAC формата : Да
Параметр RefFrames формата : 9 кадров
Идентификатор кодека : V_MPEG4/ISO/AVC
Продолжительность : 2 ч. 13 м.
Битрейт : 5373 Кбит/сек
Ширина : 1280 пикселей
Высота : 690 пикселей
Соотношение сторон : 1,85:1
Режим частоты кадров : Постоянный
Частота кадров : 23,976 (24000/1001) кадра/сек
Цветовое пространство : YUV
Субдискретизация насыщенности : 4:2:0
Битовая глубина : 8 бит
Тип развёртки : Прогрессивная
Бит/(Пиксели*Кадры) : 0.254
Размер потока : 5,00 Гбайт (90%)
Библиотека кодирования : x264 core 157 r2935 545de2f
Настройки программы : cabac=1 / ref=9 / deblock=1:-2:-2 / analyse=0x3:0x113 / me=umh / subme=11 / psy=1 / psy_rd=1.00:0.15 / mixed_ref=1 / me_range=32 / chroma_me=1 / trellis=2 / 8x8dct=1 / cqm=0 / deadzone=21,11 / fast_pskip=0 / chroma_qp_offset=-3 / threads=6 / lookahead_threads=1 / sliced_threads=0 / nr=0 / decimate=1 / interlaced=0 / bluray_compat=0 / constrained_intra=0 / bframes=13 / b_pyramid=2 / b_adapt=2 / b_bias=0 / direct=1 / weightb=1 / open_gop=0 / weightp=2 / keyint=230 / keyint_min=23 / scenecut=40 / intra_refresh=0 / rc_lookahead=40 / rc=crf / mbtree=1 / crf=18.2 / qcomp=0.60 / qpmin=0 / qpmax=69 / qpstep=4 / vbv_maxrate=50000 / vbv_bufsize=62500 / crf_max=0.0 / nal_hrd=none / filler=0 / ip_ratio=1.40 / aq=1:1.00
Язык : English
Default : Да
Forced : Нет

Аудио #1
Идентификатор : 2
Формат : AC-3
Формат/Информация : Audio Coding 3
Коммерческое название : Dolby Digital
Идентификатор кодека : A_AC3
Продолжительность : 2 ч. 12 м.
Вид битрейта : Постоянный
Битрейт : 384 Кбит/сек
Каналы : 6 каналов
ChannelLayout : L R C LFE Ls Rs
Частота : 48,0 КГц
Частота кадров : 31,250 кадров/сек (1536 SPF)
Метод сжатия : С потерями
Размер потока : 365 Мбайт (6%)
Заголовок : Zerzia по переводу dooctoor aka Dr.Filin
Язык : Russian
ServiceKind/String : Complete Main
Default : Да
Forced : Нет

Аудио #2
Идентификатор : 3
Формат : AC-3
Формат/Информация : Audio Coding 3
Коммерческое название : Dolby Digital
Идентификатор кодека : A_AC3
Продолжительность : 2 ч. 13 м.
Вид битрейта : Постоянный
Битрейт : 192 Кбит/сек
Каналы : 1 канал
ChannelLayout : C
Частота : 48,0 КГц
Частота кадров : 31,250 кадров/сек (1536 SPF)
Метод сжатия : С потерями
Размер потока : 183 Мбайт (3%)
Заголовок : original
Язык : English
ServiceKind/String : Complete Main
Default : Нет
Forced : Нет

Текст #1
Идентификатор : 4
Формат : UTF-8
Идентификатор кодека : S_TEXT/UTF8
Идентификатор кодека/Информация : UTF-8 Plain Text
Продолжительность : 2 ч. 7 м.
Битрейт : 95 бит/сек
ElementCount : 1513
Размер потока : 89,4 Кбайт (0%)
Заголовок : русские dooctoor aka Dr.Filin
Язык : Russian
Default : Нет
Forced : Нет

Текст #2
Идентификатор : 5
Формат : UTF-8
Идентификатор кодека : S_TEXT/UTF8
Идентификатор кодека/Информация : UTF-8 Plain Text
Продолжительность : 2 ч. 8 м.
Битрейт : 56 бит/сек
ElementCount : 1557
Размер потока : 53,5 Кбайт (0%)
Заголовок : английские
Язык : English
Default : Нет
Forced : Нет

Меню
00:00:00.000 : :Глава 01
00:06:09.494 : :Глава 02
00:16:15.057 : :Глава 03
00:25:42.832 : :Глава 04
00:31:06.573 : :Глава 05
00:39:37.541 : :Глава 06
00:51:17.365 : :Глава 07
00:59:28.273 : :Глава 08
01:08:24.558 : :Глава 09
01:16:19.866 : :Глава 10
01:23:50.650 : :Глава 11
01:40:12.381 : :Глава 12
01:52:28.366 : :Глава 13
02:01:37.498 : :Глава 14
pb.wtf



Скачать Свидетель через торрент https://a.radikal.ru/a22/1911/b7/dad4044a0ad5.png Скачать фильм Свидетель через торрент бесплантно в хорошем качестве О фильме: Фильм инсценирует события битвы при Мэтуоне, забастовки угольщиков в 1920 году в небольшом городке на холмах Западной Вирджинии. ... 10 10 2
Торрент: Зарегистрирован [2019-11-21 06:49] · скачан: 21 раз
Статус: √ проверено
Размер: 5.53 GB
Как cкачать? Как скачать Свидетель через торрент | qTorrent

% Раздел Тема Автор DL S | L
Фильмы [HD 720p, 1080p] (Звук Cam, VO, DVO) [ 14.78 GB ] Свидетель / Matewan [1987 история BDRip 1080p by msltel] VO msltel Скачать
2 | 0
Фильмы до 2000 г. [ 3.18 GB ] Свидетель / Matewan [1987 история BDRip by msltel] VO msltel Скачать
2 | 0

28-11-2019 20:33  

Отключить всю рекламу на сайте

    Дорогой пользователь! Огромная просьба, поблагодарите релизера, оцените раздачу и оставьте свои комментарий, если Вы скачали Свидетель через торрент бесплатно! Внесите свою лепту в развитие PiratBit!
    Комментировать посты могут только пользователи прошедшие не сложную регистрацию
    Показать сообщения:    

    Свидетель через торрент
    Скачать бесплатно Свидетель
    Свидетель скачать торрент
    Свидетель смотреть онлайн
    Cкачать фильм Свидетель бесплатно
    Свидетель скачать торрент в хорошем качестве
    Свидетель смотреть онлайн бесплатно в хорошем качестве


    Вы не можете начинать темы
    Вы не можете отвечать на сообщения
    Вы не можете редактировать свои сообщения
    Вы не можете удалять свои сообщения
    Вы не можете голосовать в опросах
    Вы не можете прикреплять файлы к сообщениям
    Вы можете скачивать файлы