2 сезон

iTunes

MVO

1

2 сезон

iTunes

1 сезон

1 сезон

RePack

30

Ultimate

ВАЖНО

ИГРА 18+

pack

RePack

MK11
pack

Легкие деньги

RePack

jed

RePack

fifa19

RePack

RDR2

RePack

NEED FOR SPEED™ PAYBACK

4 сезон

9 сезон

Бесстыжие 9 сезон

Все сериалы

все сериалы на PB.wtf

RePack

FAR CRY 5

Anonymous, добрый вечер, мы не успеваем собрать деньги на оплату серверов за декабрь и январь, помогите нам пожалуйста в это трудное время. В качестве благодарности мы отключим Вам всю рекламу на сайте (укажите свой ник в строку Ваше имя)!

×
  
Magnet ссылка

Турист / The Tourist (Флориан Хенкель фон Доннерсмарк) [2010 г., боевик, триллер, мелодрама, BDRip 720p / 60 FPS, Дубляж] от R.G. HD-Films pb.wtf

Турист через торрент pb.wtf

Размер: 2.82 GB | Добавлен: 1 год 2 мес. назад | Торрент скачан:116 раз
Скачать  

21-11-2019 16:40 Турист Скачать торрент  

Турист / The Tourist
Год выпуска: 2010
Страна: США, Франция
Жанр: боевик, триллер, мелодрама
Продолжительность: 01:43:28
Перевод: Дубляж
Субтитры: Русские

Режиссер: Флориан Хенкель фон Доннерсмарк

Бюджет: $100 000 000
Премьера в мире: 6 декабря 2010

rating

В ролях: Джонни Депп, Анджелина Джоли, Пол Беттани, Тимоти Далтон, Стивен Беркофф, Руфус Сьюэлл, Кристиан Де Сика, Алессио Бони, Даниэле Печчи, Джованни Гвиделли, Рауль Бова, Брюно Волкович, Марк Рюшманн, Жюльен Бомгартнер, Франсуа Винчентелли, Клеман Сибони, Жан-Клод Адлен, Жан-Мари Ламур, Николя Гийо, Мхамед Арезки

Описание: Американец отправляется в путешествие по Европе, где, желая залечить душевные раны, заводит интрижку с обворожительной красоткой. Вскоре ничего не подозревающий турист оказывается втянутым в международный преступный заговор, в котором завязаны Интерпол и русская мафия, принимающие его за криминального авторитета.

Качество: BDRip 720p / 60 FPS
Формат: MKV
Видео кодек: H.264
Аудио кодек: AC3
Видео: x264, 1280 x 536 (2,40:1), 3515 kbps, 60,000 fps, ( 0.085 bpp)
Аудио#1: Русский, AC-3, 48.0 KHz, 6 ch, 384 Kbps


скриншот   скриншот   скриншот   скриншот  Автор рипа: slaventi-69
x264 [info]: frame I:2415 Avg QP:13.57 size:106322 PSNR Mean Y:49.33 U:51.51 V:53.01 Avg:50.05 Global:49.59
x264 [info]: frame P:88955 Avg QP:17.23 size: 18974 PSNR Mean Y:46.40 U:49.78 V:51.36 Avg:47.31 Global:46.65
x264 [info]: frame B:280733 Avg QP:21.13 size: 2780 PSNR Mean Y:45.67 U:49.49 V:51.00 Avg:46.65 Global:45.97
x264 [info]: consecutive B-frames: 3.0% 2.7% 4.7% 15.1% 74.6%


Общее
Уникальный идентификатор : 244964616905512361887098286003341975903 (0xB84A781706F77964AB965E3D7EB3615F)
Полное имя : F:\The.Tourist(2010).BDRip.720p.(60 Fps).mkv
Формат : Matroska
Версия формата : Version 4
Размер файла : 2,82 Гбайт
Продолжительность : 1 ч. 43 м.
Общий поток : 3904 Кбит/сек
Название фильма : Турист / The Tourist (2010) BDRip 720p (60 Fps)
Дата кодирования : UTC 2019-07-28 16:17:24
Программа кодирования : mkvmerge v12.0.0 ('Trust / Lust') 64bit
Библиотека кодирования : libebml v1.3.4 + libmatroska v1.4.5

Видео
Идентификатор : 1
Формат : AVC
Формат/Информация : Advanced Video Codec
Профиль формата : High@L4.1
Настройки формата : CABAC / 4 Ref Frames
Параметр CABAC формата : Да
Параметр RefFrames формата : 4 кадра
Идентификатор кодека : V_MPEG4/ISO/AVC
Продолжительность : 1 ч. 43 м.
Битрейт : 3515 Кбит/сек
Ширина : 1280 пикселей
Высота : 536 пикселей
Соотношение сторон : 2,40:1
Режим частоты кадров : Постоянный
Частота кадров : 60,000 кадров/сек
Цветовое пространство : YUV
Субдискретизация насыщенности : 4:2:0
Битовая глубина : 8 бит
Тип развёртки : Прогрессивная
Бит/(Пиксели*Кадры) : 0.085
Размер потока : 2,54 Гбайт (90%)
Заголовок : slaventi-69 ( R.G. HD-Films | 60 fps )
Библиотека кодирования : x264 core 130 r2273 b3065e6
Настройки программы : cabac=1 / ref=4 / deblock=1:-1:-1 / analyse=0x3:0x113 / me=umh / subme=9 / psy=1 / psy_rd=1.00:0.00 / mixed_ref=1 / me_range=24 / chroma_me=1 / trellis=2 / 8x8dct=1 / cqm=0 / deadzone=21,11 / fast_pskip=1 / chroma_qp_offset=-2 / threads=10 / lookahead_threads=2 / sliced_threads=0 / nr=0 / decimate=1 / interlaced=0 / bluray_compat=0 / constrained_intra=0 / bframes=4 / b_pyramid=2 / b_adapt=2 / b_bias=0 / direct=2 / weightb=1 / open_gop=0 / weightp=2 / keyint=250 / keyint_min=25 / scenecut=40 / intra_refresh=0 / rc_lookahead=40 / rc=crf / mbtree=1 / crf=16.0 / qcomp=0.60 / qpmin=0 / qpmax=69 / qpstep=4 / ip_ratio=1.40 / aq=1:1.00
Язык : English
Default : Да
Forced : Нет

Аудио
Идентификатор : 2
Формат : AC-3
Формат/Информация : Audio Coding 3
Коммерческое название : Dolby Digital
Идентификатор кодека : A_AC3
Продолжительность : 1 ч. 43 м.
Вид битрейта : Постоянный
Битрейт : 384 Кбит/сек
Каналы : 6 каналов
Channel layout : L R C LFE Ls Rs
Частота : 48,0 КГц
Частота кадров : 31,250 кадров/сек (1536 SPF)
Битовая глубина : 16 бит
Метод сжатия : С потерями
Размер потока : 284 Мбайт (10%)
Заголовок : DUB
Язык : Russian
ServiceKind/String : Complete Main
Default : Да
Forced : Да

Текст
Идентификатор : 3
Формат : PGS
Режим смешивания : zlib
Идентификатор кодека : S_HDMV/PGS
Идентификатор кодека/Информация : Picture based subtitle format used on BDs/HD-DVDs
Продолжительность : 1 ч. 22 м.
Битрейт : 770 бит/сек
ElementCount : 154
Размер потока : 469 Кбайт (0%)
Заголовок : Русские
Язык : Russian
Default : Да
Forced : Да

Меню
00:00:00.000 : en:Chapter 00
00:08:05.860 : en:Chapter 01
00:11:30.856 : en:Chapter 02
00:17:08.277 : en:Chapter 03
00:25:06.671 : en:Chapter 04
00:30:27.116 : en:Chapter 05
00:34:13.009 : en:Chapter 06
00:40:59.582 : en:Chapter 07
00:49:29.841 : en:Chapter 08
00:55:22.736 : en:Chapter 09
01:00:55.943 : en:Chapter 10
01:06:24.313 : en:Chapter 11
01:12:52.534 : en:Chapter 12
01:17:40.739 : en:Chapter 13
01:24:38.364 : en:Chapter 14
01:30:16.536 : en:Chapter 15

Просьба к переливающим на другие сайты, в оформлении указывайте пожалуйста авторство группы R.G. HD-Films pb.wtf



Скачать Турист через торрент http://lostpic.net/images/f9b6557f3f2cb81b06b18756e410fb8e.png Скачать фильм Турист через торрент бесплантно в хорошем качестве Описание: Американец отправляется в путешествие по Европе, где, желая залечить душевные раны, заводит интрижку с обворожительной красоткой. ... 8.2 10 5
Info! Золотая раздача, скачанное не засчитывается.
Торрент: Зарегистрирован [2019-11-21 16:40] · скачан: 116 раз
Статус: √ проверено
Размер: 2.82 GB
Как cкачать? Как скачать Турист через торрент | UTorrent

28-11-2019 20:33  

Отключить всю рекламу на сайте

    Дорогой пользователь! Огромная просьба, поблагодарите релизера, оцените раздачу и оставьте свои комментарий, если Вы скачали Турист через торрент бесплатно! Внесите свою лепту в развитие PiratBit!
    Комментировать посты могут только пользователи прошедшие не сложную регистрацию
    Показать сообщения:    

    Турист через торрент
    Скачать бесплатно Турист
    Турист скачать торрент
    Турист смотреть онлайн
    Cкачать фильм Турист бесплатно
    Турист скачать торрент в хорошем качестве
    Турист смотреть онлайн бесплатно в хорошем качестве


    Вы не можете начинать темы
    Вы не можете отвечать на сообщения
    Вы не можете редактировать свои сообщения
    Вы не можете удалять свои сообщения
    Вы не можете голосовать в опросах
    Вы не можете прикреплять файлы к сообщениям
    Вы можете скачивать файлы