новый адрес
Ссылка на приватное зеркало всего за 1$. Внимание количество ограничено!!!

iTunes

1+1

iTunes

мы

WEB-DL

1

iTunes

Чернобыль

iTunes

Ральф против интернета

Лицензия

ПШазам

Лицензия

Оно 2

Лицензия

30
pack

Вам бонус

ВАЖНО

!!Акция!!

Alien_RageХит недели

RePack

Resident Evil 21

ИГРА 18+

pack

RePack

jed

!!Акция!!

Alien_Rage

RePack

fifa19

RePack

Assassins Creed: Odyssey

RePack

NEED FOR SPEED™ PAYBACK

3 сезон

9 сезон

Бесстыжие 9 сезон

Все сериалы

все сериалы на PB.wtf

RePack

FAR CRY 5
Ребята, катастрофически не хватает 1900р. для оплаты серверов за Октябрь (всвязи с блокировками трафик упал в 3 раза), 1-2р., выручайте.
  

По данным уголовного розыска... (Валерий Михайловский) [1979, СССР, криминал, военный, DVDRip-AVC от AVP Studio] pb.wtf

По данным уголовного розыска... через торрент pb.wtf

Раздают: 14 [ 55 KB/s ] Качают: 1 [ 0 KB/s ]
Размер: 1.09 GB | Добавлен: 17 д. назад | Торрент скачан:12 раз
Скачать  

21-11-2019 18:09 По данным уголовного розыска... Скачать торрент  

По данным уголовного розыска...
Страна: СССР
Производство: Студия Горького
Жанр: криминал, военный
Год выпуска: 1979
Продолжительность: 01:09:31

Перевод: не требуется
Оригинальная аудиодорожка: русский
Cубтитры: нет

Режиссер: Валерий Михайловский

В ролях:
Леонид Неведомский, Александр Соловьев, Алексей Эйбоженко, Геннадий Крынкин, Алексей Михайлов, Георгий Штиль, Николай Скоробогатов, Николай Буров, Юрий Назаров, Александр Хочинский, Виктор Проскурин, Владимир Кенигсон, Елена Шанина...
Об актёрах подробней

Описание:
В июле 1941 года наступающими немецкими войсками была перехвачена машина, перевозившая ювелирные изделия. Руководство германской разведки решило внедрить своего агента по документам убитого инкассатора…
В августе 1942 года была убита семья ювелира Ивановского. Группа сотрудников МУРа во главе с опытным чекистом Даниловым начала свою операцию по обезвреживанию опасных преступников, которые были подготовлены в школах СД и Абвера для выполнения диверсионной работы. Важную роль в поимке вражеских агентов отводилась бывшему вору Кострову…

Исходник: DVD5 R5
Тип релиза: DVDRip-AVC
Контейнер: MKV

Видео: 696->951x536 (16:9), 25 fps, H264 ~ 2049 kbps avg, 0.220 bit/pixel
Аудио: 48 kHz, Dolby AC3 2.0, 192 kbps

Раздача от:
Общее
Полное имя : Po.dannym.ugolovnogo.rozyska.1979.DVDRip-AVC_[New-team]_by_AVP_Studio.mkv
Формат : Matroska
Версия формата : Version 2
Размер файла : 1,09 Гбайт
Продолжительность : 1 ч. 9 м.
Общий поток : 2243 Кбит/сек
Дата кодирования : UTC 2019-11-21 11:16:35
Программа кодирования : mkvmerge v6.1.0 ('Old Devil') built on Mar 4 2013 09:10:42
Библиотека кодирования : libebml v1.3.0 + libmatroska v1.4.0

Видео
Идентификатор : 1
Формат : AVC
Формат/Информация : Advanced Video Codec
Профиль формата : High@L4.1
Настройки формата : CABAC / 10 Ref Frames
Параметр CABAC формата : Да
Параметр RefFrames формата : 10 кадров
Идентификатор кодека : V_MPEG4/ISO/AVC
Продолжительность : 1 ч. 9 м.
Битрейт : 2049 Кбит/сек
Ширина : 696 пикселей
Высота : 536 пикселей
Соотношение сторон : 16:9
Режим частоты кадров : Постоянный
Частота кадров : 25,000 кадров/сек
Цветовое пространство : YUV
Субдискретизация насыщенности : 4:2:0
Битовая глубина : 8 бит
Тип развёртки : Прогрессивная
Бит/(Пиксели*Кадры) : 0.220
Размер потока : 997 Мбайт (89%)
Библиотека кодирования : x264 core 157 r2932 303c484
Настройки программы : cabac=1 / ref=10 / deblock=1:-2:-1 / analyse=0x3:0x113 / me=umh / subme=10 / psy=1 / psy_rd=1.00:0.00 / mixed_ref=1 / me_range=32 / chroma_me=1 / trellis=2 / 8x8dct=1 / cqm=0 / deadzone=21,11 / fast_pskip=1 / chroma_qp_offset=-2 / threads=6 / lookahead_threads=1 / sliced_threads=0 / nr=0 / decimate=0 / interlaced=0 / bluray_compat=0 / constrained_intra=0 / bframes=8 / b_pyramid=2 / b_adapt=2 / b_bias=0 / direct=3 / weightb=1 / open_gop=0 / weightp=2 / keyint=250 / keyint_min=25 / scenecut=40 / intra_refresh=0 / rc=2pass / mbtree=0 / bitrate=2049 / ratetol=1.0 / qcomp=0.60 / qpmin=0 / qpmax=69 / qpstep=4 / cplxblur=20.0 / qblur=0.5 / ip_ratio=1.40 / pb_ratio=1.30 / aq=1:1.00
Default : Да
Forced : Нет

Аудио
Идентификатор : 2
Формат : AC-3
Формат/Информация : Audio Coding 3
Коммерческое название : Dolby Digital
Идентификатор кодека : A_AC3
Продолжительность : 1 ч. 9 м.
Вид битрейта : Постоянный
Битрейт : 192 Кбит/сек
Каналы : 2 канала
ChannelLayout : L R
Частота : 48,0 КГц
Частота кадров : 31,250 кадров/сек (1536 SPF)
Битовая глубина : 16 бит
Метод сжатия : С потерями
Размер потока : 95,5 Мбайт (9%)
Default : Да
Forced : Нет
pb.wtf



Скачать По данным уголовного розыска... через торрент http://i60.fastpic.ru/big/2013/1024/cb/b9aa3a92e54b16944e3959fbcc6fc1cb.png Скачать фильм По данным уголовного розыска... через торрент бесплантно в хорошем качестве Описание:В июле 1941 года наступающими немецкими войсками была перехвачена машина, перевозившая ювелирные изделия. Руководство германской ... 5 10 1
Торрент: Зарегистрирован [2019-11-21 18:09] · скачан: 12 раз
Статус: √ проверено
Размер: 1.09 GB
Как cкачать? Как скачать По данным уголовного розыска... через торрент | qTorrent

% Раздел Тема Автор DL S | L
Кино СССР [ 1.43 GB ] По данным уголовного розыска [1979 военный DVDRip-AVC] Скорпион1976 Скачать
1 | 0

28-11-2019 20:33  

Отключить всю рекламу на сайте

    Дорогой пользователь! Огромная просьба, поблагодарите релизера, оцените раздачу и оставьте свои комментарий, если Вы скачали По данным уголовного розыска... через торрент бесплатно! Внесите свою лепту в развитие PiratBit!
    Комментировать посты могут только пользователи прошедшие не сложную регистрацию
    Показать сообщения:    

    По данным уголовного розыска... через торрент
    Скачать бесплатно По данным уголовного розыска...
    По данным уголовного розыска... скачать торрент
    По данным уголовного розыска... смотреть онлайн
    Cкачать фильм По данным уголовного розыска... бесплатно
    По данным уголовного розыска... скачать торрент в хорошем качестве
    По данным уголовного розыска... смотреть онлайн бесплатно в хорошем качестве


    Вы не можете начинать темы
    Вы не можете отвечать на сообщения
    Вы не можете редактировать свои сообщения
    Вы не можете удалять свои сообщения
    Вы не можете голосовать в опросах
    Вы не можете прикреплять файлы к сообщениям
    Вы можете скачивать файлы