Лицензия

MVO

1

1 сезон

Лицензия

Лицензия

13

MVO

1 сезон

Deluxe Edition

pack

Рекомендуем

30

Repack

ВАЖНО

ВАЖНО

Ghostwire

RePack

jed

RePack

fifa19

RePack

RDR2

RePack

NEED FOR SPEED™ PAYBACK

RePack

Кинопоиск HD

 Острые козырьки 6 сезон

6 сезон

FAR CRY 6

RePack

Лицензия

MVO

1

1 сезон

1 сезон

Лицензия

  

И это всё Роберт / Сезон: 1 / Серии: 1-8 из 8 (Андрей Линич) [2019, Драма, криминал, WEB-DLRip]

И это всё Роберт через торрент pb.wtf

Размер: 4.68 GB | Добавлен: 2 года 5 мес. назад | Торрент скачан:49 раз
Смотреть онлайн И это всё Роберт | Скачать   

21-11-2019 18:43 И это всё Роберт Скачать торрент  

И это всё Роберт
Год выпуска: 2019
Страна: Россия
Жанр: Драма, криминал
Продолжительность: ~ 00:45:00
Субтитры: отсутствуют

Режиссер: Андрей Линич



В ролях: Александр Сергеев (VIII), Марат Хасанов (II), Полина Зиновьева, Наталья Панова, Александр Гришин, Рамиль Сабитов, Борис Хасанов, Тимур Латыпов, Анна Бурмистрова, Владислав Ветров, Роман Богданов, Андрей Афанасьев, Юлия Рудина, Вано Миранян, Екатерина Василенко, Александра Скачкова

Описание: Роберт Богданов работает учителем физики в обычной провинциальной школе. Он терпит насмешки учеников и живет от зарплаты до зарплаты. Став случайным соучастником ограбления платежного терминала и убийства наркодилера, Роберт попадает под прицел сразу с двух сторон. Теперь его ищет полиция, а также безжалостный криминальный авторитет Хан, полностью контролирующий улицы города. В довершение этих проблем, его дочери требуется срочная операция в Израиле, которая простому учителю не по карману. Законные способы получить деньги исчерпаны. Остаются только… законы физики.

Качество: WEB-DLRip
Формат: AVI

Видео: XviD, ~ 1690 Кбит/с, 720x304, 25 кадр/с
Аудио: 48.0 kHz, AC3 Dolby Digital, 2/0 (L,R) ch, ~ 192 kbps
скриншот  скриншот  скриншот  

Общее
Полное имя : C:\I.eto.vsyo.robert.2019.WEB-DLRip.25Kuzmich\I.eto.vsyo.robert.e01.WEB-DLRip.25Kuzmich.avi
Формат : AVI
Формат/Информация : Audio Video Interleave
Размер файла : 599 Мбайт
Продолжительность : 44 м. 10 с.
Общий поток : 1896 Кбит/сек
Программа кодирования : VirtualDubMod 1.5.10.3 | www.virtualdub-fr.org || (build 2550/release)
Библиотека кодирования : VirtualDubMod build 2550/release

Видео
Идентификатор : 0
Формат : MPEG-4 Visual
Профиль формата : Advanced [email protected]
Настройки формата : BVOP1
Параметр BVOP формата : 1
Параметр QPel формата : Нет
Параметр GMC формата : Без точки перехода
Параметр матрицы формата : Default (MPEG)
Идентификатор кодека : XVID
Идентификатор кодека/Подсказка : XviD
Продолжительность : 44 м. 10 с.
Битрейт : 1695 Кбит/сек
Ширина : 720 пикселей
Высота : 304 пикселя
Соотношение сторон : 2,35:1
Частота кадров : 25,000 кадров/сек
Цветовое пространство : YUV
Субдискретизация насыщенности : 4:2:0
Битовая глубина : 8 бит
Тип развёртки : Прогрессивная
Метод сжатия : С потерями
Бит/(Пиксели*Кадры) : 0.310
Размер потока : 535 Мбайт (89%)
Библиотека кодирования : XviD 73

Аудио
Идентификатор : 1
Формат : AC-3
Формат/Информация : Audio Coding 3
Коммерческое название : Dolby Digital
Идентификатор кодека : 2000
Продолжительность : 44 м. 10 с.
Вид битрейта : Постоянный
Битрейт : 192 Кбит/сек
Каналы : 2 канала
ChannelLayout : L R
Частота : 48,0 КГц
Частота кадров : 31,250 кадров/сек (1536 SPF)
Битовая глубина : 16 бит
Метод сжатия : С потерями
Размер потока : 60,7 Мбайт (10%)
Выравнивание : Разделение по промежуткам
Продолжительность промежутка : 40 мс. (1,00 видеокадр)
Время предзагрузки промежутка : 500 мс.
ServiceKind/String : Complete Main

Внимание! Раздача ведётся путём добавления новых серий; при каждом добавлении создаётся новый торрент. Чтобы начать докачку новой серии, пользователям необходимо сделать следующее:
(1) остановить скачивание,
(2) удалить старый торрент у себя из клиента (старые серии удалять не надо),
(3) скачать новый торрент и запустить его у себя в клиенте вместо старого, при этом указать клиенту путь в старую папку куда и должно происходить скачивание новых серий.

Ваш клиент при этом должен произвести хеширование (проверку) старой папки (если не производит сам - помогите ему сделать это), и будет докачивать только те серии которых у вас ещё нет. Старые серии при этом не удаляются, а продолжают раздаваться!

Eсли вы уже удалили старые серии, то предотвратить повторную закачку старых серий можно, отжав галочку в соответсвующих местах при запуске нового торрента. По возможности, желательно не удалять старые серии как можно дольше чтобы релизёр не столько продолжал раздавать старые серии, а смог сконцентрироваться на новых.



Скачать И это всё Роберт через торрент https://i111.fastpic.ru/big/2019/1121/5b/71a2c820efa5fa860fcaddb37b6e6e5b.jpg Скачать, смотреть онлайн И это всё Роберт бесплантно в хорошем качестве Описание: Роберт Богданов работает учителем физики в обычной провинциальной школе. Он терпит насмешки учеников и живет от зарплаты до ... 9.1 10 17
Торрент: Зарегистрирован [2020-04-16 08:42] · скачан: 49 раз
Статус: √ проверено
Размер: 4.68 GB
Как cкачать? Как скачать И это всё Роберт через торрент | UTorrent

% Раздел Тема Автор DL S | L
Наши сериалы [ 9.08 GB ] И это всё Роберт / Сезон: 1 / Серии: 1-8 из 8 | | 1080p bober100 Скачать
1 | 0
Наши сериалы [ 7.83 GB ] И это всё Роберт / Сезон: 1 / Серии: 1-8 из 8 | | 720p bober100 Скачать
1 | 0
Наши сериалы [ 4.42 GB ] И это всё Роберт / Сезон: 1 / Серии: 1-8 из 8 | | WEBRip-AVC bober100 Скачать
1 | 0



Последний раз редактировалось: bober100 (2020-04-16 11:53), всего редактировалось 7 раз(а)

28-11-2019 20:33  

Отключить вcю реклaмy на сайте

21-11-2019 20:39 И это всё Роберт Скачать торрент  

Совсем своих мозгов нет



16-04-2020 09:00 И это всё Роберт Скачать торрент  

Александр Сергеев (VIII)



17-04-2020 23:44 И это всё Роберт Скачать торрент  

Mastabla писал(а):

Александр Сергеев (VIII)




    Дорогой пользователь! Огромная просьба, поблагодарите релизера, оцените раздачу и оставьте свои комментарий, если Вы скачали И это всё Роберт через торрент бесплатно!!
    Комментировать посты могут только пользователи прошедшие не сложную регистрацию
    Показать сообщения:    


    И это всё Роберт через торрент
    Скачать бесплатно И это всё Роберт
    И это всё Роберт скачать торрент
    И это всё Роберт смотреть онлайн
    Cкачать фильм И это всё Роберт бесплатно
    И это всё Роберт скачать торрент в хорошем качестве
    И это всё Роберт смотреть онлайн бесплатно в хорошем качестве
    Вы не можете начинать темы
    Вы не можете отвечать на сообщения
    Вы не можете редактировать свои сообщения
    Вы не можете удалять свои сообщения
    Вы не можете голосовать в опросах
    Вы не можете прикреплять файлы к сообщениям
    Вы можете скачивать файлы