Ссылка на приватное зеркало всего за 1$. Внимание количество ограничено!!!

OK

1+1

iTunes

мы

OK

1

WEB-DLRip

Джокер

Пифагор

Ведьмак / The Witcher сериал

Лицензия

ПШазам

ОК

Оно 2

iTunes

30
pack

Вам бонус

ВАЖНО

!!Акция!!

Alien_RageХит недели

RePack

Resident Evil 21

ИГРА 18+

pack

RePack

jed

RePack

fifa19

RePack

Assassins Creed: Odyssey

RePack

NEED FOR SPEED™ PAYBACK

4 сезон

9 сезон

Бесстыжие 9 сезон

Все сериалы

все сериалы на PB.wtf

RePack

FAR CRY 5
  

Дети Ванюшина (Евгений Ташков) [1974, СССР, драма, DVDRip-AVC от AVP Studio] pb.wtf

Дети Ванюшина через торрент pb.wtf

Раздают: 1 [ 0 KB/s ]
Размер: 1.09 GB | Добавлен: 2 мес. назад | Торрент скачан:5 раз
Скачать  

22-11-2019 07:54 Дети Ванюшина Скачать торрент  

Дети Ванюшина
Страна: СССР
Производство: Мосфильм

Жанр: драма
Год выпуска: 1974
Продолжительность: 01:31:39

Перевод: Не требуется
Cубтитры: нет
Оригинальная аудиодорожка: русский

Режиссер: Евгений Ташков

В ролях:
Нина Зорская, Борис Андреев, Александр Кайдановский, Людмила Гурченко, Олег Голубицкий, Нелли Витепаш, Виктор Павлов, Валентина Шарыкина, Валентина Серова, Тамара Совчи, Елена Соловей, Александр Воеводин, Клавдия Хабарова, Люда Белугина, Ольга Бобкова...
Об актёрах подробней

Описание:
Внешне в семье Ванюшиных все благопристойно — жизнь течет, как во всех купеческих домах. Но глубокая, непреодолимая пропасть отделяет родителей от детей, такая же пропасть лежит и между самими детьми. Откровенный разговор с младшим сыном заставляет главу семьи Александра Егоровича Ванюшина посмотреть правде в глаза.

Источник: DVD5 R5
Качество видео: DVDRip-AVC
Формат видео: MKV

Видео: 720->1128х480 (2,35:1), 25,000 fps, H264 ~ 1507 kbps avg, 0.174 bit/pixel
Аудио: 48 kHz, Dolby Digital AC3 2.0, 192 kbps

Раздача от:
Общее
Полное имя : Deti.Vanyushina.1974.DVDRip-AVC_[New-team]_by_AVP_Studio.mkv
Формат : Matroska
Версия формата : Version 2
Размер файла : 1,09 Гбайт
Продолжительность : 1 ч. 31 м.
Общий поток : 1701 Кбит/сек
Дата кодирования : UTC 2019-11-19 14:00:39
Программа кодирования : mkvmerge v6.1.0 ('Old Devil') built on Mar 4 2013 09:10:42
Библиотека кодирования : libebml v1.3.0 + libmatroska v1.4.0

Видео
Идентификатор : 1
Формат : AVC
Формат/Информация : Advanced Video Codec
Профиль формата : High@L4.1
Настройки формата : CABAC / 10 Ref Frames
Параметр CABAC формата : Да
Параметр RefFrames формата : 10 кадров
Идентификатор кодека : V_MPEG4/ISO/AVC
Продолжительность : 1 ч. 31 м.
Битрейт : 1507 Кбит/сек
Ширина : 720 пикселей
Высота : 480 пикселей
Соотношение сторон : 2,35:1
Соотношение сторон в оригинале : 2,35:1
Режим частоты кадров : Постоянный
Частота кадров : 25,000 кадров/сек
Цветовое пространство : YUV
Субдискретизация насыщенности : 4:2:0
Битовая глубина : 8 бит
Тип развёртки : Прогрессивная
Бит/(Пиксели*Кадры) : 0.174
Размер потока : 967 Мбайт (87%)
Библиотека кодирования : x264 core 157 r2932 303c484
Настройки программы : cabac=1 / ref=10 / deblock=1:-2:-1 / analyse=0x3:0x113 / me=umh / subme=10 / psy=1 / psy_rd=1.00:0.00 / mixed_ref=1 / me_range=32 / chroma_me=1 / trellis=2 / 8x8dct=1 / cqm=0 / deadzone=21,11 / fast_pskip=1 / chroma_qp_offset=-2 / threads=6 / lookahead_threads=1 / sliced_threads=0 / nr=0 / decimate=0 / interlaced=0 / bluray_compat=0 / constrained_intra=0 / bframes=8 / b_pyramid=2 / b_adapt=2 / b_bias=0 / direct=3 / weightb=1 / open_gop=0 / weightp=2 / keyint=250 / keyint_min=25 / scenecut=40 / intra_refresh=0 / rc=2pass / mbtree=0 / bitrate=1507 / ratetol=1.0 / qcomp=0.60 / qpmin=0 / qpmax=69 / qpstep=4 / cplxblur=20.0 / qblur=0.5 / ip_ratio=1.40 / pb_ratio=1.30 / aq=1:1.00
Default : Да
Forced : Нет

Аудио
Идентификатор : 2
Формат : AC-3
Формат/Информация : Audio Coding 3
Коммерческое название : Dolby Digital
Идентификатор кодека : A_AC3
Продолжительность : 1 ч. 31 м.
Вид битрейта : Постоянный
Битрейт : 192 Кбит/сек
Каналы : 2 канала
ChannelLayout : L R
Частота : 48,0 КГц
Частота кадров : 31,250 кадров/сек (1536 SPF)
Битовая глубина : 16 бит
Метод сжатия : С потерями
Размер потока : 126 Мбайт (11%)
Default : Да
Forced : Нет
pb.wtf



Скачать Дети Ванюшина через торрент http://d.radikal.ru/d23/1911/58/3ae273aa91f7.png Скачать фильм Дети Ванюшина через торрент бесплантно в хорошем качестве Описание:Внешне в семье Ванюшиных все благопристойно — жизнь течет, как во всех купеческих домах. Но глубокая, непреодолимая пропасть ... 10 10 1
Торрент: Зарегистрирован [2019-11-22 07:54] · скачан: 5 раз
Статус: √ проверено
Размер: 1.09 GB
Как cкачать? Как скачать Дети Ванюшина через торрент | qTorrent

% Раздел Тема Автор DL S | L
Кино СССР [ 745 MB ] Дети Ванюшина [1974 СССР DVDRip от AVP Studio] AVP Studio Скачать
1 | 0

28-11-2019 20:33  

Отключить всю рекламу на сайте

    Дорогой пользователь! Огромная просьба, поблагодарите релизера, оцените раздачу и оставьте свои комментарий, если Вы скачали Дети Ванюшина через торрент бесплатно! Внесите свою лепту в развитие PiratBit!
    Комментировать посты могут только пользователи прошедшие не сложную регистрацию
    Показать сообщения:    

    Дети Ванюшина через торрент
    Скачать бесплатно Дети Ванюшина
    Дети Ванюшина скачать торрент
    Дети Ванюшина смотреть онлайн
    Cкачать фильм Дети Ванюшина бесплатно
    Дети Ванюшина скачать торрент в хорошем качестве
    Дети Ванюшина смотреть онлайн бесплатно в хорошем качестве


    Вы не можете начинать темы
    Вы не можете отвечать на сообщения
    Вы не можете редактировать свои сообщения
    Вы не можете удалять свои сообщения
    Вы не можете голосовать в опросах
    Вы не можете прикреплять файлы к сообщениям
    Вы можете скачивать файлы