Ссылка на приватное зеркало нашего сайта всего за 1$. Внимание количество ограничено!!!

2 сезон

iTunes

1 сезон

1

iTunes

iTunes

iTunes

1 сезон

RePack

30

ИГРА 18+

pack

ВАЖНО

!!Акция!!

Alien_RageХит недели

RePack

MK11
pack

Забери бонус

RePack

jed

!!Акция!!

Alien_Rage

RePack

fifa19

RePack

Assassins Creed: Odyssey

RePack

NEED FOR SPEED™ PAYBACK

4 сезон

9 сезон

Бесстыжие 9 сезон

Все сериалы

все сериалы на PB.wtf

RePack

FAR CRY 5
  

Доктор Рихтер / Сезон: 3 / Серии: 1-16 из 16 (Антон Борматов) [2019, Драма, детектив, медицина, HDTVRip] pb.wtf

Доктор Рихтер через торрент pb.wtf

Размер: 10.35 GB | Добавлен: 10 мес. назад | Торрент скачан:19 раз
Скачать  

22-11-2019 09:54 Доктор Рихтер Скачать торрент  

Доктор Рихтер
Год выпуска: 2019
Страна: Россия
Жанр: Драма, детектив, медицина
Продолжительность: ~ 00:51:00
Субтитры: отсутствуют

Режиссер: Антон Борматов

rating

В ролях: Алексей Серебряков, Дмитрий Ендальцев, Полина Чернышова, Павел Чинарёв, Анна Михалкова, Виталий Хаев, Александр Яценко, Мария Миронова мл., Екатерина Вилкова, Александр Робак, Ирина Пегова, Дарья Екамасова, Полина Ауг, Мария Шалаева, Семён Трескунов, Кирилл Плетнёв, Юлия Пересильд, Анатолий Белый, Александр Галибин, Сахат Дурсунов, Вероника Корниенко, Максим Сапрыкин, Мария Болтнева, Алёна Мордовина, Федя Смирнов, Эмилия Климова, Елена Котельникова, Александр Андриенко, Ксения Дорохова, Анна Тараторкина

Описание: Он превосходный специалист в своей области, врач - диагност, которому нет равных. К нему обращаются в тех сложнейших случаях, когда пациент, казалось бы, уже обречен и он борется за жизнь пациента, не жалея своего здоровья. Он невероятно трудный человек в общении с близкими и коллегами, живущий в своем мире по исключительно своим собственным законам. Ему не интересны люди, ведь они «все лгут», его волнуют только их болезни. Его характера боятся все коллеги, но, несмотря на это, все они мечтают попасть в его легендарную диагностическую «команду»… Знакомьтесь – доктор Рихтер, главный герой российской адаптации культового американского сериала «Доктор Хаус» («House, M.D.»), в течение восьми сезонов волновавшего умы и сердца зрителей. Итак, история болезни №1, лечащий врач Андрей Рихтер…

Качество: HDTVRip
Формат: AVI

Видео: 720x400 (1.80:1), 25 fps, XviD build 73 ~1600 kbps avg, 0.22 bit/pixel
Аудио: 48.0 kHz, AC3 Dolby Digital, 2/0 (L,R) ch, ~ 192 kbps
скриншот  скриншот  скриншот  скриншот  

General
Complete name : H:\fiiles x\Доктор Рихтер.2019.HDTVRip.Files-x\01. Доктор Рихтер.2019.HDTVRip.Files-x.avi
Format : AVI
Format/Info : Audio Video Interleave
File size : 671 MiB
Duration : 52mn 5s
Overall bit rate : 1 801 Kbps
Writing application : VirtualDubMod 1.5.10.3 | www.virtualdub-fr.org || (build 2550/release)
Writing library : VirtualDubMod build 2550/release

Video
ID : 0
Format : MPEG-4 Visual
Format profile : Advanced Simple@L5
Format settings, BVOP : 1
Format settings, QPel : No
Format settings, GMC : No warppoints
Format settings, Matrix : Custom
Codec ID : XVID
Codec ID/Hint : XviD
Duration : 52mn 5s
Bit rate : 1 600 Kbps
Width : 720 pixels
Height : 400 pixels
Display aspect ratio : 16:9
Frame rate : 25.000 fps
Color space : YUV
Chroma subsampling : 4:2:0
Bit depth : 8 bits
Scan type : Progressive
Compression mode : Lossy
Bits/(Pixel*Frame) : 0.222
Stream size : 596 MiB (89%)
Writing library : XviD 73

Audio
ID : 1
Format : AC-3
Format/Info : Audio Coding 3
Mode extension : CM (complete main)
Codec ID : 2000
Duration : 52mn 5s
Bit rate mode : Constant
Bit rate : 192 Kbps
Channel(s) : 2 channels
Channel positions : Front: L R
Sampling rate : 48.0 KHz
Bit depth : 16 bits
Compression mode : Lossy
Stream size : 71.5 MiB (11%)
Alignment : Split accross interleaves
Interleave, duration : 40 ms (1.00 video frame)
Interleave, preload duration : 500 ms

pb.wtf



Скачать Доктор Рихтер через торрент https://c.radikal.ru/c23/1911/37/e8b61027bb67.jpg Скачать фильм Доктор Рихтер через торрент бесплантно в хорошем качестве Описание: Он превосходный специалист в своей области, врач - диагност, которому нет равных. К нему обращаются в тех сложнейших случаях, ... 10 10 2
Торрент: Зарегистрирован [2019-11-22 09:54] · скачан: 19 раз
Статус: √ проверено
Размер: 10.35 GB
Как cкачать? Как скачать Доктор Рихтер через торрент | qTorrent

% Раздел Тема Автор DL S | L
Наши сериалы [ 21.23 GB ] Доктор Рихтер / Сезон: 3 / Серии: 1-16 из 16 [2019 медицина HDTVRip 720p] bober100 Скачать
1 | 0
Наши сериалы [ 43.98 GB ] Доктор Рихтер / Сезон: 3 / Серии: 1-16 из 16 [2019 медицина HDTV 1080i] bober100 Скачать
1 | 0
Наши сериалы [ 12.61 GB ] Доктор Рихтер / Сезон: 3 / Серии: 1-16 из 16 [2019 медицина HDTVRip-AVC] bober100 Скачать
1 | 0
Наши сериалы [ 9.38 GB ] Доктор Рихтер / Сезон: 3 / Серии: 1-16 из 16 [2019 медицина SATRip] bober100 Скачать
1 | 0
Наши сериалы [ 9.74 GB ] Доктор Рихтер / Сезон: 3 / Серии: 1-16 из 16 [2019 SATRip-AVC] aleksan55 Скачать
1 | 0

28-11-2019 20:33  

Отключить всю рекламу на сайте

    Дорогой пользователь! Огромная просьба, поблагодарите релизера, оцените раздачу и оставьте свои комментарий, если Вы скачали Доктор Рихтер через торрент бесплатно! Внесите свою лепту в развитие PiratBit!
    Комментировать посты могут только пользователи прошедшие не сложную регистрацию
    Показать сообщения:    

    Доктор Рихтер через торрент
    Скачать бесплатно Доктор Рихтер
    Доктор Рихтер скачать торрент
    Доктор Рихтер смотреть онлайн
    Cкачать фильм Доктор Рихтер бесплатно
    Доктор Рихтер скачать торрент в хорошем качестве
    Доктор Рихтер смотреть онлайн бесплатно в хорошем качестве


    Вы не можете начинать темы
    Вы не можете отвечать на сообщения
    Вы не можете редактировать свои сообщения
    Вы не можете удалять свои сообщения
    Вы не можете голосовать в опросах
    Вы не можете прикреплять файлы к сообщениям
    Вы можете скачивать файлы